SHARE
TWEET

[Kantai] Alderamin on the Sky - 02 (1280x720 AAC) [45E20D38].mkv

HYBRID_BEING Aug 8th, 2016 74 Never
Not a member of Pastebin yet? Sign Up, it unlocks many cool features!
  1. General
  2. Unique ID                                : 204777277162074564177973192961984987107 (0x9A0EAB43B139F66FB19087C98BAA7FE3)
  3. Complete name                            : [Kantai] Alderamin on the Sky - 02 (1280x720 AAC) [45E20D38].mkv
  4. Format                                   : Matroska
  5. Format version                           : Version 4 / Version 2
  6. File size                                : 339 MiB
  7. Duration                                 : 23mn 42s
  8. Overall bit rate                         : 1 999 Kbps
  9. Encoded date                             : UTC 2016-07-19 06:42:40
  10. Writing application                      : mkvmerge v8.3.0 ('Over the Horizon') 64bit
  11. Writing library                          : libebml v1.3.1 + libmatroska v1.4.2
  12. Attachments                              : AveriaSans-Bold.ttf / Cabin-Bold.ttf / Cabin-BoldItalic.ttf / FOT-HummingStd-v999.ttf / Polo Brush.ttf / Academia Roman.ttf / ALEX.ttf / ArnoPro-ItalicSubhead.otf
  13.  
  14. Video
  15. ID                                       : 1
  16. Format                                   : AVC
  17. Format/Info                              : Advanced Video Codec
  18. Format profile                           : High 10@L5
  19. Format settings, CABAC                   : Yes
  20. Format settings, ReFrames                : 16 frames
  21. Codec ID                                 : V_MPEG4/ISO/AVC
  22. Duration                                 : 23mn 41s
  23. Bit rate                                 : 1 859 Kbps
  24. Width                                    : 1 280 pixels
  25. Height                                   : 720 pixels
  26. Display aspect ratio                     : 16:9
  27. Frame rate mode                          : Constant
  28. Frame rate                               : 23.976 (24000/1001) fps
  29. Color space                              : YUV
  30. Chroma subsampling                       : 4:2:0
  31. Bit depth                                : 10 bits
  32. Scan type                                : Progressive
  33. Bits/(Pixel*Frame)                       : 0.084
  34. Stream size                              : 315 MiB (93%)
  35. Writing library                          : x264 core 142 r2431+42 c69a006 tMod [10-bit@all X86_64]
  36. Encoding settings                        : cabac=1 / ref=16 / deblock=1:-1:-1 / analyse=0x3:0x133 / me=tesa / subme=11 / psy=1 / fade_compensate=0.50 / psy_rd=1.00:0.05 / mixed_ref=1 / me_range=32 / chroma_me=1 / trellis=2 / 8x8dct=1 / cqm=0 / deadzone=21,11 / fast_pskip=0 / chroma_qp_offset=-3 / threads=24 / lookahead_threads=5 / sliced_threads=0 / nr=0 / decimate=1 / interlaced=0 / bluray_compat=0 / constrained_intra=0 / fgo=0 / bframes=16 / b_pyramid=2 / b_adapt=2 / b_bias=0 / direct=3 / weightb=1 / open_gop=0 / weightp=2 / keyint=240 / keyint_min=23 / scenecut=40 / intra_refresh=0 / rc_lookahead=240 / rc=crf / mbtree=1 / crf=16.3000 / qcomp=0.70 / qpmin=0:0:0 / qpmax=72:72:72 / qpstep=4 / ip_ratio=1.40 / aq=3:0.80 / aq-sensitivity=10.00 / aq-factor=1.00:1.00:1.00 / aq2=0 / aq3=0
  37. Default                                  : Yes
  38. Forced                                   : No
  39.  
  40. Audio
  41. ID                                       : 2
  42. Format                                   : AAC
  43. Format/Info                              : Advanced Audio Codec
  44. Format profile                           : LC
  45. Codec ID                                 : A_AAC
  46. Duration                                 : 23mn 42s
  47. Bit rate                                 : 128 Kbps
  48. Channel(s)                               : 2 channels
  49. Channel positions                        : Front: L R
  50. Sampling rate                            : 44.1 KHz
  51. Frame rate                               : 43.066 fps (1024 spf)
  52. Compression mode                         : Lossy
  53. Stream size                              : 21.7 MiB (6%)
  54. Default                                  : Yes
  55. Forced                                   : No
  56.  
  57. Text
  58. ID                                       : 3
  59. Format                                   : ASS
  60. Codec ID                                 : S_TEXT/ASS
  61. Codec ID/Info                            : Advanced Sub Station Alpha
  62. Duration                                 : 23mn 37s
  63. Bit rate                                 : 2 604 bps
  64. Count of elements                        : 3138
  65. Compression mode                         : Lossless
  66. Stream size                              : 451 KiB (0%)
  67. Title                                    : Kantai
  68. Language                                 : English
  69. Default                                  : Yes
  70. Forced                                   : No
  71.  
  72. Menu
  73. 00:00:00.033                             : en:Intro
  74. 00:01:34.030                             : en:Opening
  75. 00:03:03.990                             : en:Part A
  76. 00:13:19.980                             : en:Part B
  77. 00:22:05.970                             : en:Ending
  78. 00:23:35.970                             : en:Preview
RAW Paste Data
We use cookies for various purposes including analytics. By continuing to use Pastebin, you agree to our use of cookies as described in the Cookies Policy. OK, I Understand
Top