Guest User

Untitled

a guest
Jul 23rd, 2021
73
Never
Not a member of Pastebin yet? Sign Up, it unlocks many cool features!
  1. General
  2. Unique ID : 310427984733822902776698940070206060755 (0xE98A4150B05D8D6C1B045EE778CB38D3)
  3. Complete name : G:\Video\Blood.Red.Sky.2021.WEB-DL.1080p.seleZen.mkv
  4. Format : Matroska
  5. Format version : Version 4
  6. File size : 2.77 GiB
  7. Duration : 2 h 3 min
  8. Overall bit rate mode : Variable
  9. Overall bit rate : 3 216 kb/s
  10. Movie name : Blood Red Sky 2021 from seleZen
  11. Encoded date : UTC 2021-07-23 07:05:24
  12. Writing application : mkvmerge v53.0.0 ('Fool's Gold') 64-bit
  13. Writing library : libebml v1.4.1 + libmatroska v1.6.2
  14.  
  15. Video
  16. ID : 1
  17. Format : AVC
  18. Format/Info : Advanced Video Codec
  19. Format profile : Main@L4
  20. Format settings : CABAC / 3 Ref Frames
  21. Format settings, CABAC : Yes
  22. Format settings, Reference : 3 frames
  23. Codec ID : V_MPEG4/ISO/AVC
  24. Duration : 2 h 3 min
  25. Bit rate mode : Variable
  26. Bit rate : 1 934 kb/s
  27. Nominal bit rate : 2 260 kb/s
  28. Maximum bit rate : 3 390 kb/s
  29. Width : 1 920 pixels
  30. Height : 1 080 pixels
  31. Display aspect ratio : 16:9
  32. Frame rate mode : Constant
  33. Frame rate : 25.000 FPS
  34. Color space : YUV
  35. Chroma subsampling : 4:2:0
  36. Bit depth : 8 bits
  37. Scan type : Progressive
  38. Bits/(Pixel*Frame) : 0.037
  39. Stream size : 1.66 GiB (60%)
  40. Writing library : x264 core 148 r2722 1b0121b
  41. Encoding settings : cabac=1 / ref=3 / deblock=1:0:0 / analyse=0x1:0x111 / me=umh / subme=10 / psy=1 / psy_rd=1.00:0.00 / mixed_ref=1 / me_range=24 / chroma_me=1 / trellis=2 / 8x8dct=0 / cqm=0 / deadzone=21,11 / fast_pskip=1 / chroma_qp_offset=-2 / threads=8 / lookahead_threads=1 / sliced_threads=0 / nr=0 / decimate=1 / interlaced=0 / bluray_compat=0 / stitchable=1 / constrained_intra=0 / bframes=2 / b_pyramid=0 / b_adapt=2 / b_bias=0 / direct=3 / weightb=1 / open_gop=0 / weightp=2 / keyint=250 / keyint_min=25 / scenecut=0 / intra_refresh=0 / rc_lookahead=50 / rc=2pass / mbtree=1 / bitrate=2260 / ratetol=1.0 / qcomp=0.50 / qpmin=6 / qpmax=51 / qpstep=4 / cplxblur=20.0 / qblur=0.5 / vbv_maxrate=3390 / vbv_bufsize=4520 / nal_hrd=vbr / filler=0 / ip_ratio=1.40 / aq=1:1.00
  42. Default : Yes
  43. Forced : No
  44.  
  45. Audio #1
  46. ID : 2
  47. Format : E-AC-3
  48. Format/Info : Enhanced AC-3
  49. Commercial name : Dolby Digital Plus
  50. Codec ID : A_EAC3
  51. Duration : 2 h 3 min
  52. Bit rate mode : Constant
  53. Bit rate : 640 kb/s
  54. Channel(s) : 6 channels
  55. Channel layout : L R C LFE Ls Rs
  56. Sampling rate : 48.0 kHz
  57. Frame rate : 31.250 FPS (1536 SPF)
  58. Compression mode : Lossy
  59. Stream size : 564 MiB (20%)
  60. Language : Russian
  61. Service kind : Complete Main
  62. Default : Yes
  63. Forced : No
  64.  
  65. Audio #2
  66. ID : 3
  67. Format : E-AC-3
  68. Format/Info : Enhanced AC-3
  69. Commercial name : Dolby Digital Plus
  70. Codec ID : A_EAC3
  71. Duration : 2 h 3 min
  72. Bit rate mode : Constant
  73. Bit rate : 640 kb/s
  74. Channel(s) : 6 channels
  75. Channel layout : L R C LFE Ls Rs
  76. Sampling rate : 48.0 kHz
  77. Frame rate : 31.250 FPS (1536 SPF)
  78. Compression mode : Lossy
  79. Stream size : 564 MiB (20%)
  80. Title : German
  81. Language : German
  82. Service kind : Complete Main
  83. Default : No
  84. Forced : No
  85.  
  86. Text #1
  87. ID : 4
  88. Format : UTF-8
  89. Codec ID : S_TEXT/UTF8
  90. Codec ID/Info : UTF-8 Plain Text
  91. Duration : 2 h 1 min
  92. Bit rate : 1 b/s
  93. Count of elements : 25
  94. Stream size : 1.34 KiB (0%)
  95. Title : Forced
  96. Language : Russian
  97. Default : Yes
  98. Forced : Yes
  99.  
  100. Text #2
  101. ID : 5
  102. Format : UTF-8
  103. Codec ID : S_TEXT/UTF8
  104. Codec ID/Info : UTF-8 Plain Text
  105. Duration : 2 h 1 min
  106. Bit rate : 47 b/s
  107. Count of elements : 987
  108. Stream size : 41.8 KiB (0%)
  109. Title : Russian
  110. Language : Russian
  111. Default : No
  112. Forced : No
  113.  
  114. Text #3
  115. ID : 6
  116. Format : UTF-8
  117. Codec ID : S_TEXT/UTF8
  118. Codec ID/Info : UTF-8 Plain Text
  119. Duration : 2 h 0 min
  120. Bit rate : 54 b/s
  121. Count of elements : 1274
  122. Stream size : 48.1 KiB (0%)
  123. Title : German
  124. Language : German
  125. Default : No
  126. Forced : No
  127.  
  128.  
RAW Paste Data