Advertisement
Henry_Kr

CHM-S01

Nov 2nd, 2022
163
0
Never
Not a member of Pastebin yet? Sign Up, it unlocks many cool features!
text 4.33 KB | None | 0 0
  1. Video
  2. ID : 1
  3. Format : AVC
  4. Format/Info : Advanced Video Codec
  5. Format profile : High@L4
  6. Format settings : CABAC / 4 Ref Frames
  7. Format settings, CABAC : Yes
  8. Format settings, Reference : 4 frames
  9. Format settings, GOP : N=1
  10. Codec ID : V_MPEG4/ISO/AVC
  11. Duration : 25 min 25 s
  12. Bit rate : 8 000 kb/s
  13. Width : 1 920 pixels
  14. Height : 1 080 pixels
  15. Display aspect ratio : 16:9
  16. Frame rate mode : Constant
  17. Frame rate : 23.976 (23976/1000) FPS
  18. Color space : YUV
  19. Chroma subsampling : 4:2:0
  20. Bit depth : 8 bits
  21. Scan type : Progressive
  22. Bits/(Pixel*Frame) : 0.161
  23. Stream size : 1.41 GiB (96%)
  24. Title : Chainsaw.Man.S01E01.1080p.CR.WEB.[CartoonNOW]
  25. Writing library : x264 core 142
  26. Encoding settings : cabac=1 / ref=4 / deblock=1:1:1 / analyse=0x3:0x113 / me=umh / subme=8 / psy=1 / psy_rd=0.40:0.00 / mixed_ref=1 / me_range=16 / chroma_me=1 / trellis=1 / 8x8dct=1 / cqm=0 / deadzone=21,11 / fast_pskip=1 / chroma_qp_offset=-2 / threads=12 / lookahead_threads=2 / sliced_threads=0 / nr=0 / decimate=1 / interlaced=0 / bluray_compat=0 / constrained_intra=0 / bframes=0 / weightp=2 / keyint=96 / keyint_min=48 / scenecut=40 / intra_refresh=0 / rc_lookahead=48 / rc=2pass / mbtree=1 / bitrate=8000 / ratetol=1.0 / qcomp=0.60 / qpmin=0 / qpmax=69 / qpstep=4 / cplxblur=20.0 / qblur=0.5 / vbv_maxrate=12000 / vbv_bufsize=18000 / nal_hrd=none / filler=0 / ip_ratio=1.40 / aq=1:0.60
  27. Language : Japanese
  28. Default : Yes
  29. Forced : No
  30.  
  31. Audio #1
  32. ID : 2
  33. Format : AAC LC
  34. Format/Info : Advanced Audio Codec Low Complexity
  35. Codec ID : A_AAC-2
  36. Duration : 25 min 25 s
  37. Bit rate : 128 kb/s
  38. Channel(s) : 2 channels
  39. Channel layout : L R
  40. Sampling rate : 44.1 kHz
  41. Frame rate : 43.066 FPS (1024 SPF)
  42. Compression mode : Lossy
  43. Stream size : 23.3 MiB (2%)
  44. Title : AAC 2.0
  45. Language : Portuguese
  46. Default : Yes
  47. Forced : Yes
  48.  
  49. Audio #2
  50. ID : 3
  51. Format : AAC LC
  52. Format/Info : Advanced Audio Codec Low Complexity
  53. Codec ID : A_AAC-2
  54. Duration : 25 min 25 s
  55. Bit rate : 128 kb/s
  56. Channel(s) : 2 channels
  57. Channel layout : L R
  58. Sampling rate : 44.1 kHz
  59. Frame rate : 43.066 FPS (1024 SPF)
  60. Compression mode : Lossy
  61. Stream size : 23.3 MiB (2%)
  62. Title : AAC 2.0
  63. Language : Japanese
  64. Default : No
  65. Forced : No
  66.  
  67. Text #1
  68. ID : 4
  69. Format : ASS
  70. Codec ID : S_TEXT/ASS
  71. Codec ID/Info : Advanced Sub Station Alpha
  72. Duration : 22 min 46 s
  73. Bit rate : 6 818 b/s
  74. Count of elements : 6911
  75. Compression mode : Lossless
  76. Stream size : 1.11 MiB (0%)
  77. Title : Forçada
  78. Language : Portuguese
  79. Default : No
  80. Forced : Yes
  81.  
  82. Text #2
  83. ID : 5
  84. Format : ASS
  85. Codec ID : S_TEXT/ASS
  86. Codec ID/Info : Advanced Sub Station Alpha
  87. Duration : 24 min 22 s
  88. Bit rate : 82 b/s
  89. Count of elements : 214
  90. Compression mode : Lossless
  91. Stream size : 14.8 KiB (0%)
  92. Title : Completa
  93. Language : Portuguese
  94. Default : No
  95. Forced : No
  96.  
  97. Menu
  98. 00:00:00.000 : :Prólogo
  99. 00:02:15.010 : :Abertura
  100. 00:03:45.016 : :Episódio
  101. 00:23:54.975 : :Encerramento
Advertisement
Add Comment
Please, Sign In to add comment
Advertisement