SHARE
TWEET

The.Curious.Case.Of.Benjamin.Button.2008.Criterion.Collection.1080p.BluRay.DTS-HD.MA.5.1.X264-HDH

a guest May 19th, 2019 117 Never
Not a member of Pastebin yet? Sign Up, it unlocks many cool features!
  1. General
  2. Unique ID                                : 231832456621397510654779583005605517974 (0xAE694E997080CF423113A33793445A96)
  3. Complete name                            : The.Curious.Case.Of.Benjamin.Button.2008.Criterion.Collection.1080p.BluRay.DTS-HD.MA.5.1.X264-HDH.mkv
  4. Format                                   : Matroska
  5. Format version                           : Version 4
  6. File size                                : 17.8 GiB
  7. Duration                                 : 2 h 46 min
  8. Overall bit rate mode                    : Variable
  9. Overall bit rate                         : 15.3 Mb/s
  10. Encoded date                             : UTC 2019-05-01 22:29:52
  11. Writing application                      : mkvmerge v31.0.0 ('Dolores In A Shoestand') 64-bit
  12. Writing library                          : libebml v1.3.6 + libmatroska v1.4.9
  13.  
  14. Video
  15. ID                                       : 1
  16. Format                                   : AVC
  17. Format/Info                              : Advanced Video Codec
  18. Format profile                           : High@L4.1
  19. Format settings                          : CABAC / 5 Ref Frames
  20. Format settings, CABAC                   : Yes
  21. Format settings, Reference frames        : 5 frames
  22. Codec ID                                 : V_MPEG4/ISO/AVC
  23. Duration                                 : 2 h 46 min
  24. Bit rate                                 : 11.7 Mb/s
  25. Width                                    : 1 920 pixels
  26. Height                                   : 800 pixels
  27. Display aspect ratio                     : 2.40:1
  28. Frame rate mode                          : Constant
  29. Frame rate                               : 23.976 (24000/1001) FPS
  30. Color space                              : YUV
  31. Chroma subsampling                       : 4:2:0
  32. Bit depth                                : 8 bits
  33. Scan type                                : Progressive
  34. Bits/(Pixel*Frame)                       : 0.317
  35. Stream size                              : 13.6 GiB (76%)
  36. Writing library                          : x264 core 142 r2431+42 c69a006 tMod [8-bit@4:2:0 X86_64]
  37. Encoding settings                        : cabac=1 / ref=5 / deblock=1:-3:-3 / analyse=0x3:0x113 / me=umh / subme=10 / psy=1 / fade_compensate=0.00 / psy_rd=1.00:0.05 / mixed_ref=1 / me_range=48 / chroma_me=1 / trellis=2 / 8x8dct=1 / cqm=0 / deadzone=21,11 / fast_pskip=0 / chroma_qp_offset=-2 / threads=48 / lookahead_threads=6 / sliced_threads=0 / nr=0 / decimate=1 / interlaced=0 / bluray_compat=0 / constrained_intra=0 / fgo=0 / bframes=8 / b_pyramid=2 / b_adapt=2 / b_bias=0 / direct=3 / weightb=1 / open_gop=0 / weightp=2 / keyint=250 / keyint_min=23 / scenecut=40 / intra_refresh=0 / rc_lookahead=40 / rc=crf / mbtree=0 / crf=16.6000 / qcomp=0.60 / qpmin=0:0:0 / qpmax=69:69:69 / qpstep=4 / vbv_maxrate=40000 / vbv_bufsize=30000 / crf_max=0.0 / nal_hrd=none / filler=0 / ip_ratio=1.40 / pb_ratio=1.30 / aq=3:0.80 / aq-sensitivity=10.00 / aq-factor=1.00:1.00:1.00 / aq2=0 / aq3=0
  38. Default                                  : Yes
  39. Forced                                   : No
  40. Color range                              : Limited
  41. Matrix coefficients                      : BT.709
  42.  
  43. Audio
  44. ID                                       : 2
  45. Format                                   : DTS XLL
  46. Format/Info                              : Digital Theater Systems
  47. Commercial name                          : DTS-HD Master Audio
  48. Codec ID                                 : A_DTS
  49. Duration                                 : 2 h 46 min
  50. Bit rate mode                            : Variable
  51. Bit rate                                 : 3 588 kb/s
  52. Channel(s)                               : 6 channels
  53. Channel layout                           : C L R Ls Rs LFE
  54. Sampling rate                            : 48.0 kHz
  55. Frame rate                               : 93.750 FPS (512 SPF)
  56. Bit depth                                : 24 bits
  57. Compression mode                         : Lossless
  58. Stream size                              : 4.16 GiB (23%)
  59. Language                                 : English
  60. Default                                  : Yes
  61. Forced                                   : No
  62.  
  63. Text #1
  64. ID                                       : 3
  65. Format                                   : PGS
  66. Muxing mode                              : zlib
  67. Codec ID                                 : S_HDMV/PGS
  68. Codec ID/Info                            : Picture based subtitle format used on BDs/HD-DVDs
  69. Duration                                 : 2 h 38 min
  70. Bit rate                                 : 31.0 kb/s
  71. Count of elements                        : 3612
  72. Stream size                              : 35.1 MiB (0%)
  73. Language                                 : English
  74. Default                                  : Yes
  75. Forced                                   : No
  76.  
  77. Text #2
  78. ID                                       : 4
  79. Format                                   : PGS
  80. Muxing mode                              : zlib
  81. Codec ID                                 : S_HDMV/PGS
  82. Codec ID/Info                            : Picture based subtitle format used on BDs/HD-DVDs
  83. Duration                                 : 2 h 38 min
  84. Bit rate                                 : 34.2 kb/s
  85. Count of elements                        : 4002
  86. Stream size                              : 38.8 MiB (0%)
  87. Language                                 : English
  88. Default                                  : No
  89. Forced                                   : No
  90.  
  91. Text #3
  92. ID                                       : 5
  93. Format                                   : PGS
  94. Muxing mode                              : zlib
  95. Codec ID                                 : S_HDMV/PGS
  96. Codec ID/Info                            : Picture based subtitle format used on BDs/HD-DVDs
  97. Duration                                 : 2 h 40 min
  98. Bit rate                                 : 27.7 kb/s
  99. Count of elements                        : 3823
  100. Stream size                              : 31.7 MiB (0%)
  101. Language                                 : Chinese
  102. Default                                  : No
  103. Forced                                   : No
  104.  
  105. Text #4
  106. ID                                       : 6
  107. Format                                   : PGS
  108. Muxing mode                              : zlib
  109. Codec ID                                 : S_HDMV/PGS
  110. Codec ID/Info                            : Picture based subtitle format used on BDs/HD-DVDs
  111. Duration                                 : 2 h 40 min
  112. Bit rate                                 : 28.8 kb/s
  113. Count of elements                        : 3823
  114. Stream size                              : 33.0 MiB (0%)
  115. Language                                 : Chinese
  116. Default                                  : No
  117. Forced                                   : No
  118.  
  119. Menu
  120. 00:00:00.000                             : :绗?01 绔?
  121. 00:06:23.466                             : :绗?02 绔?
  122. 00:17:54.448                             : :绗?03 绔?
  123. 00:31:11.953                             : :绗?04 绔?
  124. 00:41:32.407                             : :绗?05 绔?
  125. 00:59:20.140                             : :绗?06 绔?
  126. 01:16:41.764                             : :绗?07 绔?
  127. 01:24:23.684                             : :绗?08 绔?
  128. 01:35:07.952                             : :绗?09 绔?
  129. 01:44:37.521                             : :绗?10 绔?
  130. 01:51:44.656                             : :绗?11 绔?
  131. 01:59:22.614                             : :绗?12 绔?
  132. 02:11:24.960                             : :绗?13 绔?
  133. 02:21:33.777                             : :绗?14 绔?
  134. 02:31:12.021                             : :绗?15 绔?
  135. 02:39:16.172                             : :绗?16 绔?
RAW Paste Data
We use cookies for various purposes including analytics. By continuing to use Pastebin, you agree to our use of cookies as described in the Cookies Policy. OK, I Understand
 
Top