SHARE
TWEET

Untitled

a guest Feb 27th, 2020 68 Never
Not a member of Pastebin yet? Sign Up, it unlocks many cool features!
  1. Общее
  2. Уникальный идентификатор                 : 297103154187970844741597677904592509146 (0xDF83FC7282025A5ADE6591A2B74A18DA)
  3. Полное имя                               : Where'd You Go, Bernadette (2019) BDRip (1920x1040) HEVC.mkv
  4. Формат                                   : Matroska
  5. Версия формата                           : Version 4 / Version 2
  6. Размер файла                             : 8,40 Гбайт
  7. Продолжительность                        : 1 ч. 48 м.
  8. Общий поток                              : 11,0 Мбит/сек
  9. Название фильма                          : Whered You Go Bernadette 2019 from селезень
  10. Программа кодирования                    : XviD4PSP 8.0.91
  11. Библиотека кодирования                   : Lavf58.20.100
  12. ErrorDetectionType                       : Per level 1
  13. ENCODING_INFO                            : MATROSKA,WEBM > MKV 1920x1080 HEVC 10-bit
  14.  
  15. Видео
  16. Идентификатор                            : 1
  17. Формат                                   : HEVC
  18. Формат/Информация                        : High Efficiency Video Coding
  19. Профиль формата                          : Main 10@L4.1@High
  20. Идентификатор кодека                     : V_MPEGH/ISO/HEVC
  21. Продолжительность                        : 1 ч. 48 м.
  22. Битрейт                                  : 9795 Кбит/сек
  23. Ширина                                   : 1920 пикселей
  24. Высота                                   : 1040 пикселей
  25. Соотношение сторон                       : 1,85:1
  26. Режим частоты кадров                     : Постоянный
  27. Частота кадров                           : 23,976 (24000/1001) кадра/сек
  28. Цветовое пространство                    : YUV
  29. Субдискретизация насыщенности            : 4:2:0
  30. Битовая глубина                          : 10 бит
  31. Бит/(Пиксели*Кадры)                      : 0.205
  32. Размер потока                            : 7,46 Гбайт (89%)
  33. Язык                                     : English
  34. Default                                  : Да
  35. Forced                                   : Нет
  36. Цветовой диапазон                        : Full
  37. ENCODING_INFO                            : H264 > HEVC NVENC VBR 10200kbps HQ
  38.  
  39. Аудио #1
  40. Идентификатор                            : 2
  41. Формат                                   : AC-3
  42. Формат/Информация                        : Audio Coding 3
  43. Параметр Endianness формата              : Big
  44. Идентификатор кодека                     : A_AC3
  45. Продолжительность                        : 1 ч. 48 м.
  46. Вид битрейта                             : Постоянный
  47. Битрейт                                  : 384 Кбит/сек
  48. Каналы                                   : 6 каналов
  49. Расположение каналов                     : Front: L C R, Side: L R, LFE
  50. Частота                                  : 48,0 КГц
  51. Частота кадров                           : 31,250 кадров/сек (1536 SPF)
  52. Битовая глубина                          : 16 бит
  53. Метод сжатия                             : С потерями
  54. Размер потока                            : 299 Мбайт (3%)
  55. Заголовок                                : iTunes
  56. Язык                                     : Russian
  57. ServiceKind/String                       : Complete Main
  58. Default                                  : Да
  59. Forced                                   : Нет
  60. ENCODING_INFO                            : AC3 > COPY Безопасное
  61.  
  62. Аудио #2
  63. Идентификатор                            : 3
  64. Формат                                   : AC-3
  65. Формат/Информация                        : Audio Coding 3
  66. Параметр Endianness формата              : Big
  67. Идентификатор кодека                     : A_AC3
  68. Продолжительность                        : 1 ч. 48 м.
  69. Вид битрейта                             : Постоянный
  70. Битрейт                                  : 640 Кбит/сек
  71. Каналы                                   : 6 каналов
  72. Расположение каналов                     : Front: L C R, Side: L R, LFE
  73. Частота                                  : 48,0 КГц
  74. Частота кадров                           : 31,250 кадров/сек (1536 SPF)
  75. Битовая глубина                          : 16 бит
  76. Метод сжатия                             : С потерями
  77. Размер потока                            : 499 Мбайт (6%)
  78. Заголовок                                : Original
  79. Язык                                     : English
  80. ServiceKind/String                       : Complete Main
  81. Default                                  : Нет
  82. Forced                                   : Нет
  83. ENCODING_INFO                            : DTS-HD MA > AC3 CBR 640kbps
  84.  
  85. Текст #1
  86. Идентификатор                            : 4
  87. Формат                                   : UTF-8
  88. Идентификатор кодека                     : S_TEXT/UTF8
  89. Идентификатор кодека/Информация          : UTF-8 Plain Text
  90. Заголовок                                : Full
  91. Язык                                     : Russian
  92. Default                                  : Да
  93. Forced                                   : Нет
  94. ENCODING_INFO                            : SUBRIP > COPY Быстрое
  95.  
  96. Текст #2
  97. Идентификатор                            : 5
  98. Формат                                   : UTF-8
  99. Идентификатор кодека                     : S_TEXT/UTF8
  100. Идентификатор кодека/Информация          : UTF-8 Plain Text
  101. Заголовок                                : Full
  102. Язык                                     : English
  103. Default                                  : Нет
  104. Forced                                   : Нет
  105. ENCODING_INFO                            : SUBRIP > COPY Быстрое
  106.  
  107. Меню
  108. 00:00:00.000                             : :Chapter 01
  109. 00:03:40.095                             : :Chapter 02
  110. 00:09:04.252                             : :Chapter 03
  111. 00:13:41.070                             : :Chapter 04
  112. 00:17:00.394                             : :Chapter 05
  113. 00:20:58.257                             : :Chapter 06
  114. 00:27:03.622                             : :Chapter 07
  115. 00:32:39.499                             : :Chapter 08
  116. 00:39:39.919                             : :Chapter 09
  117. 00:43:08.961                             : :Chapter 10
  118. 00:47:50.701                             : :Chapter 11
  119. 00:52:33.692                             : :Chapter 12
  120. 00:56:18.041                             : :Chapter 13
  121. 01:00:57.529                             : :Chapter 14
  122. 01:05:12.075                             : :Chapter 15
  123. 01:08:07.959                             : :Chapter 16
  124. 01:13:25.735                             : :Chapter 17
  125. 01:16:47.186                             : :Chapter 18
  126. 01:22:26.525                             : :Chapter 19
  127. 01:27:00.924                             : :Chapter 20
  128. 01:30:45.607                             : :Chapter 21
  129. 01:33:38.029                             : :Chapter 22
  130. 01:35:46.074                             : :Chapter 23
  131. 01:40:24.518                             : :Chapter 24
RAW Paste Data
We use cookies for various purposes including analytics. By continuing to use Pastebin, you agree to our use of cookies as described in the Cookies Policy. OK, I Understand
Top