Guest User

National.Lampoons.Christmas.Vacation.1989.Remastered.BluRay.1080p.DTS-HD.MA.2.0.AVC.REMUX-FraMeSToR

a guest
Jun 15th, 2019
63
Never
Not a member of Pastebin yet? Sign Up, it unlocks many cool features!
  1. General
  2. Unique ID                                : 13732067296191953036779634667944893605 (0xA54B3309AF3754E96E43CE4F81F5CA5)
  3. Complete name                            : National.Lampoons.Christmas.Vacation.1989.Remastered.BluRay.1080p.DTS-HD.MA.2.0.AVC.REMUX-FraMeSToR.mkv
  4. Format                                   : Matroska
  5. Format version                           : Version 4
  6. File size                                : 23.8 GiB
  7. Duration                                 : 1 h 37 min
  8. Overall bit rate mode                    : Variable
  9. Overall bit rate                         : 35.0 Mb/s
  10. Movie name                               : National Lampoon's Christmas Vacation (1989)
  11. Encoded date                             : UTC 2016-12-11 15:44:17
  12. Writing application                      : mkvmerge v9.6.0 ('Slave To Your Mind') 64bit
  13. Writing library                          : libebml v1.3.4 + libmatroska v1.4.5
  14.  
  15. Video
  16. ID                                       : 1
  17. Format                                   : AVC
  18. Format/Info                              : Advanced Video Codec
  19. Format profile                           : High@L4.1
  20. Format settings                          : CABAC / 2 Ref Frames
  21. Format settings, CABAC                   : Yes
  22. Format settings, Reference frames        : 2 frames
  23. Codec ID                                 : V_MPEG4/ISO/AVC
  24. Duration                                 : 1 h 37 min
  25. Bit rate mode                            : Variable
  26. Bit rate                                 : 32.8 Mb/s
  27. Width                                    : 1 920 pixels
  28. Height                                   : 1 080 pixels
  29. Display aspect ratio                     : 16:9
  30. Frame rate mode                          : Constant
  31. Frame rate                               : 23.976 (24000/1001) FPS
  32. Color space                              : YUV
  33. Chroma subsampling                       : 4:2:0
  34. Bit depth                                : 8 bits
  35. Scan type                                : Progressive
  36. Bits/(Pixel*Frame)                       : 0.659
  37. Stream size                              : 22.2 GiB (94%)
  38. Title                                    : MPEG-4 AVC Video
  39. Default                                  : Yes
  40. Forced                                   : No
  41.  
  42. Audio #1
  43. ID                                       : 2
  44. Format                                   : DTS XLL
  45. Format/Info                              : Digital Theater Systems
  46. Commercial name                          : DTS-HD Master Audio
  47. Codec ID                                 : A_DTS
  48. Duration                                 : 1 h 37 min
  49. Bit rate mode                            : Variable
  50. Bit rate                                 : 1 599 kb/s
  51. Channel(s)                               : 2 channels
  52. Sampling rate                            : 48.0 kHz
  53. Frame rate                               : 93.750 FPS (512 SPF)
  54. Bit depth                                : 24 bits
  55. Compression mode                         : Lossless
  56. Stream size                              : 1.08 GiB (5%)
  57. Title                                    : DTS-HD 5.1
  58. Language                                 : English
  59. Default                                  : Yes
  60. Forced                                   : No
  61.  
  62. Audio #2
  63. ID                                       : 3
  64. Format                                   : AC-3
  65. Format/Info                              : Audio Coding 3
  66. Commercial name                          : Dolby Digital
  67. Codec ID                                 : A_AC3
  68. Duration                                 : 1 h 37 min
  69. Bit rate mode                            : Constant
  70. Bit rate                                 : 192 kb/s
  71. Channel(s)                               : 2 channels
  72. Channel layout                           : L R
  73. Sampling rate                            : 48.0 kHz
  74. Frame rate                               : 31.250 FPS (1536 SPF)
  75. Bit depth                                : 16 bits
  76. Compression mode                         : Lossy
  77. Stream size                              : 133 MiB (1%)
  78. Title                                    : Commentary with Director Jermemiah Chechik/Producer Matty Simmons/ Actors Randy Quaid/Beverly D'Angelo/Johnny Galecki/Miriam Flynn
  79. Language                                 : English
  80. Service kind                             : Complete Main
  81. Default                                  : No
  82. Forced                                   : No
  83.  
  84. Text #1
  85. ID                                       : 4
  86. Format                                   : PGS
  87. Codec ID                                 : S_HDMV/PGS
  88. Codec ID/Info                            : Picture based subtitle format used on BDs/HD-DVDs
  89. Duration                                 : 1 h 33 min
  90. Bit rate                                 : 70.7 kb/s
  91. Count of elements                        : 2008
  92. Stream size                              : 47.5 MiB (0%)
  93. Title                                    : English (SDH)
  94. Language                                 : English
  95. Default                                  : No
  96. Forced                                   : No
  97.  
  98. Text #2
  99. ID                                       : 5
  100. Format                                   : PGS
  101. Codec ID                                 : S_HDMV/PGS
  102. Codec ID/Info                            : Picture based subtitle format used on BDs/HD-DVDs
  103. Duration                                 : 1 h 36 min
  104. Bit rate                                 : 61.7 kb/s
  105. Count of elements                        : 1806
  106. Stream size                              : 42.6 MiB (0%)
  107. Title                                    : French
  108. Language                                 : French
  109. Default                                  : No
  110. Forced                                   : No
  111.  
  112. Text #3
  113. ID                                       : 6
  114. Format                                   : PGS
  115. Codec ID                                 : S_HDMV/PGS
  116. Codec ID/Info                            : Picture based subtitle format used on BDs/HD-DVDs
  117. Duration                                 : 1 h 36 min
  118. Bit rate                                 : 54.5 kb/s
  119. Count of elements                        : 1825
  120. Stream size                              : 37.6 MiB (0%)
  121. Title                                    : Spanish (Castilian)
  122. Language                                 : Spanish
  123. Default                                  : No
  124. Forced                                   : No
  125.  
  126. Text #4
  127. ID                                       : 7
  128. Format                                   : PGS
  129. Codec ID                                 : S_HDMV/PGS
  130. Codec ID/Info                            : Picture based subtitle format used on BDs/HD-DVDs
  131. Duration                                 : 1 h 36 min
  132. Bit rate                                 : 48.6 kb/s
  133. Count of elements                        : 1883
  134. Stream size                              : 33.6 MiB (0%)
  135. Title                                    : Spanish (Latin America)
  136. Language                                 : Spanish
  137. Default                                  : No
  138. Forced                                   : No
  139.  
  140. Text #5
  141. ID                                       : 8
  142. Format                                   : PGS
  143. Codec ID                                 : S_HDMV/PGS
  144. Codec ID/Info                            : Picture based subtitle format used on BDs/HD-DVDs
  145. Duration                                 : 1 h 36 min
  146. Bit rate                                 : 67.1 kb/s
  147. Count of elements                        : 1658
  148. Stream size                              : 46.3 MiB (0%)
  149. Title                                    : Danish
  150. Language                                 : Danish
  151. Default                                  : No
  152. Forced                                   : No
  153.  
  154. Text #6
  155. ID                                       : 9
  156. Format                                   : PGS
  157. Codec ID                                 : S_HDMV/PGS
  158. Codec ID/Info                            : Picture based subtitle format used on BDs/HD-DVDs
  159. Duration                                 : 1 h 36 min
  160. Bit rate                                 : 61.9 kb/s
  161. Count of elements                        : 1704
  162. Stream size                              : 42.7 MiB (0%)
  163. Title                                    : Finnish
  164. Language                                 : Finnish
  165. Default                                  : No
  166. Forced                                   : No
  167.  
  168. Text #7
  169. ID                                       : 10
  170. Format                                   : PGS
  171. Codec ID                                 : S_HDMV/PGS
  172. Codec ID/Info                            : Picture based subtitle format used on BDs/HD-DVDs
  173. Duration                                 : 1 h 36 min
  174. Bit rate                                 : 53.6 kb/s
  175. Count of elements                        : 1678
  176. Stream size                              : 36.9 MiB (0%)
  177. Title                                    : Norwegian
  178. Language                                 : Norwegian
  179. Default                                  : No
  180. Forced                                   : No
  181.  
  182. Text #8
  183. ID                                       : 11
  184. Format                                   : PGS
  185. Codec ID                                 : S_HDMV/PGS
  186. Codec ID/Info                            : Picture based subtitle format used on BDs/HD-DVDs
  187. Duration                                 : 1 h 36 min
  188. Bit rate                                 : 57.2 kb/s
  189. Count of elements                        : 1636
  190. Stream size                              : 39.5 MiB (0%)
  191. Title                                    : Swedish
  192. Language                                 : Swedish
  193. Default                                  : No
  194. Forced                                   : No
  195.  
  196. Menu
  197. 00:00:00.000                             : en:Chapter 1
  198. 00:02:39.492                             : en:Chapter 2
  199. 00:07:01.045                             : en:Chapter 3
  200. 00:10:51.150                             : en:Chapter 4
  201. 00:12:41.677                             : en:Chapter 5
  202. 00:14:55.561                             : en:Chapter 6
  203. 00:17:31.717                             : en:Chapter 7
  204. 00:19:31.920                             : en:Chapter 8
  205. 00:29:45.492                             : en:Chapter 9
  206. 00:35:42.974                             : en:Chapter 10
  207. 00:41:37.161                             : en:Chapter 11
  208. 00:44:41.303                             : en:Chapter 12
  209. 00:47:23.799                             : en:Chapter 13
  210. 00:48:36.413                             : en:Chapter 14
  211. 00:51:28.627                             : en:Chapter 15
  212. 00:57:28.987                             : en:Chapter 16
  213. 00:59:43.580                             : en:Chapter 17
  214. 01:01:42.365                             : en:Chapter 18
  215. 01:04:16.519                             : en:Chapter 19
  216. 01:07:08.607                             : en:Chapter 20
  217. 01:10:22.676                             : en:Chapter 21
  218. 01:11:59.231                             : en:Chapter 22
  219. 01:16:28.917                             : en:Chapter 23
  220. 01:18:38.672                             : en:Chapter 24
  221. 01:22:31.988                             : en:Chapter 25
  222. 01:25:11.564                             : en:Chapter 26
  223. 01:28:38.479                             : en:Chapter 27
  224. 01:31:19.807                             : en:Chapter 28
  225. 01:33:50.708                             : en:Chapter 29
RAW Paste Data