SHARE
TWEET

Output video from HandBrake

FutureMillennium Feb 7th, 2017 170 Never
Not a member of Pastebin yet? Sign Up, it unlocks many cool features!
  1. Output video from HandBrake
  2.  
  3. General
  4. Complete name                            : Overwatch 12.01.2016 - 21.29.35.02.mp4
  5. Format                                   : MPEG-4
  6. Format profile                           : Base Media / Version 2
  7. Codec ID                                 : mp42 (isom/iso2/avc1/mp41)
  8. File size                                : 8.19 GiB
  9. Duration                                 : 58 min 25 s
  10. Overall bit rate mode                    : Variable
  11. Overall bit rate                         : 20.1 Mb/s
  12. Recorded date                            : 2016
  13. Encoded date                             : UTC 2017-01-11 15:44:58
  14. Tagged date                              : UTC 2017-01-11 15:44:58
  15. Writing application                      : HandBrake 0.10.5 2016021100
  16.  
  17. Video
  18. ID                                       : 1
  19. Format                                   : AVC
  20. Format/Info                              : Advanced Video Codec
  21. Format profile                           : Main@L4
  22. Format settings, CABAC                   : Yes
  23. Format settings, ReFrames                : 4 frames
  24. Codec ID                                 : avc1
  25. Codec ID/Info                            : Advanced Video Coding
  26. Duration                                 : 58 min 25 s
  27. Bit rate                                 : 19.9 Mb/s
  28. Width                                    : 1 920 pixels
  29. Height                                   : 1 080 pixels
  30. Display aspect ratio                     : 16:9
  31. Frame rate mode                          : Constant
  32. Frame rate                               : 60.000 FPS
  33. Color space                              : YUV
  34. Chroma subsampling                       : 4:2:0
  35. Bit depth                                : 8 bits
  36. Scan type                                : Progressive
  37. Bits/(Pixel*Frame)                       : 0.160
  38. Stream size                              : 8.10 GiB (99%)
  39. Writing library                          : x264 core 142 r2479 dd79a61
  40. Encoding settings                        : cabac=1 / ref=1 / deblock=1:0:0 / analyse=0x1:0x111 / me=hex / subme=2 / psy=1 / psy_rd=1.00:0.00 / mixed_ref=0 / me_range=16 / chroma_me=1 / trellis=0 / 8x8dct=0 / cqm=0 / deadzone=21,11 / fast_pskip=1 / chroma_qp_offset=0 / threads=12 / lookahead_threads=4 / sliced_threads=0 / nr=0 / decimate=1 / interlaced=0 / bluray_compat=0 / constrained_intra=0 / bframes=3 / b_pyramid=2 / b_adapt=1 / b_bias=0 / direct=1 / weightb=1 / open_gop=0 / weightp=1 / keyint=600 / keyint_min=60 / scenecut=40 / intra_refresh=0 / rc_lookahead=10 / rc=crf / mbtree=1 / crf=1.0 / qcomp=0.60 / qpmin=0 / qpmax=69 / qpstep=4 / vbv_maxrate=20000 / vbv_bufsize=25000 / crf_max=0.0 / nal_hrd=none / filler=0 / ip_ratio=1.40 / aq=1:1.00
  41. Encoded date                             : UTC 2017-01-11 15:44:58
  42. Tagged date                              : UTC 2017-01-11 15:44:58
  43. Color range                              : Limited
  44. Color primaries                          : BT.601 NTSC
  45. Transfer characteristics                 : BT.709
  46. Matrix coefficients                      : BT.601
  47.  
  48. Audio
  49. ID                                       : 2
  50. Format                                   : AAC
  51. Format/Info                              : Advanced Audio Codec
  52. Format profile                           : LC
  53. Codec ID                                 : 40
  54. Duration                                 : 58 min 25 s
  55. Bit rate mode                            : Variable
  56. Bit rate                                 : 196 kb/s
  57. Channel(s)                               : 2 channels
  58. Channel positions                        : Front: L R
  59. Sampling rate                            : 48.0 kHz
  60. Frame rate                               : 46.875 FPS (1024 spf)
  61. Compression mode                         : Lossy
  62. Stream size                              : 82.0 MiB (1%)
  63. Title                                    : Stereo / Stereo
  64. Default                                  : Yes
  65. Alternate group                          : 1
  66. Encoded date                             : UTC 2017-01-11 15:44:58
  67. Tagged date                              : UTC 2017-01-11 15:44:58
RAW Paste Data
We use cookies for various purposes including analytics. By continuing to use Pastebin, you agree to our use of cookies as described in the Cookies Policy. OK, I Understand
Top