GrabHD

Untitled

Mar 16th, 2020
111
Never
Not a member of Pastebin yet? Sign Up, it unlocks many cool features!
  1. Общее
  2. Уникальный идентификатор : 260377027889937885021101113199862295633 (0xC3E2CA9EB85F9737F5E70EA573392C51)
  3. Полное имя : South Wind.2018.BDRip.720p.W.mkv
  4. Формат : Matroska
  5. Версия формата : Version 4
  6. Размер файла : 5,64 Гбайт
  7. Продолжительность : 2 ч. 5 м.
  8. Общий поток : 6440 Кбит/сек
  9. Название фильма : South Wind.2018.BDRip.720p.W
  10. Дата кодирования : UTC 2020-03-16 17:12:38
  11. Программа кодирования : mkvmerge v23.0.0 ('The Bride Said No') 64-bit
  12. Библиотека кодирования : libebml v1.3.6 + libmatroska v1.4.9
  13.  
  14. Видео
  15. Идентификатор : 1
  16. Формат : AVC
  17. Формат/Информация : Advanced Video Codec
  18. Профиль формата : High@L4.1
  19. Настройки формата : CABAC / 5 Ref Frames
  20. Параметр CABAC формата : Да
  21. Параметр RefFrames формата : 5 кадров
  22. Идентификатор кодека : V_MPEG4/ISO/AVC
  23. Продолжительность : 2 ч. 5 м.
  24. Битрейт : 4736 Кбит/сек
  25. Ширина : 1280 пикселей
  26. Высота : 536 пикселей
  27. Соотношение сторон : 2,40:1
  28. Режим частоты кадров : Постоянный
  29. Частота кадров : 25,000 кадров/сек
  30. Цветовое пространство : YUV
  31. Субдискретизация насыщенности : 4:2:0
  32. Битовая глубина : 8 бит
  33. Тип развёртки : Прогрессивная
  34. Бит/(Пиксели*Кадры) : 0.276
  35. Размер потока : 4,14 Гбайт (74%)
  36. Библиотека кодирования : x264 core 155 r2901 7d0ff22
  37. Настройки программы : cabac=1 / ref=5 / deblock=1:-3:-3 / analyse=0x3:0x113 / me=umh / subme=10 / psy=1 / psy_rd=1.00:0.00 / mixed_ref=1 / me_range=24 / chroma_me=1 / trellis=2 / 8x8dct=1 / cqm=0 / deadzone=21,11 / fast_pskip=1 / chroma_qp_offset=-2 / threads=17 / lookahead_threads=4 / sliced_threads=0 / nr=0 / decimate=1 / interlaced=0 / bluray_compat=0 / constrained_intra=0 / bframes=8 / b_pyramid=2 / b_adapt=2 / b_bias=0 / direct=3 / weightb=1 / open_gop=0 / weightp=2 / keyint=240 / keyint_min=24 / scenecut=40 / intra_refresh=0 / rc_lookahead=60 / rc=2pass / mbtree=1 / bitrate=4736 / ratetol=1.0 / qcomp=0.60 / qpmin=0 / qpmax=69 / qpstep=4 / cplxblur=20.0 / qblur=0.5 / ip_ratio=1.40 / aq=1:1.00
  38. Язык : Serbian
  39. Default : Да
  40. Forced : Нет
  41. Цветовой диапазон : Limited
  42. Основные цвета : BT.709
  43. Характеристики трансфера : BT.709
  44. Коэффициенты матрицы : BT.709
  45.  
  46. Аудио #1
  47. Идентификатор : 2
  48. Формат : AC-3
  49. Формат/Информация : Audio Coding 3
  50. Коммерческое название : Dolby Digital
  51. Идентификатор кодека : A_AC3
  52. Продолжительность : 2 ч. 5 м.
  53. Вид битрейта : Постоянный
  54. Битрейт : 192 Кбит/сек
  55. Каналы : 2 канала
  56. ChannelLayout : L R
  57. Частота : 48,0 КГц
  58. Частота кадров : 31,250 кадров/сек (1536 SPF)
  59. Метод сжатия : С потерями
  60. Размер потока : 172 Мбайт (3%)
  61. Заголовок : iTunes
  62. Язык : Russian
  63. ServiceKind : Complete Main
  64. Default : Да
  65. Forced : Нет
  66.  
  67. Аудио #2
  68. Идентификатор : 3
  69. Формат : DTS
  70. Формат/Информация : Digital Theater Systems
  71. Идентификатор кодека : A_DTS
  72. Продолжительность : 2 ч. 5 м.
  73. Вид битрейта : Постоянный
  74. Битрейт : 1509 Кбит/сек
  75. Каналы : 6 каналов
  76. ChannelLayout : C L R Ls Rs LFE
  77. Частота : 48,0 КГц
  78. Частота кадров : 93,750 кадра/сек (512 SPF)
  79. Битовая глубина : 16 бит
  80. Метод сжатия : С потерями
  81. Размер потока : 1,32 Гбайт (23%)
  82. Язык : Serbian
  83. Default : Нет
  84. Forced : Нет
  85.  
  86. Текст #1
  87. Идентификатор : 4
  88. Формат : UTF-8
  89. Идентификатор кодека : S_TEXT/UTF8
  90. Идентификатор кодека/Информация : UTF-8 Plain Text
  91. Продолжительность : 1 ч. 59 м.
  92. Битрейт : 92 бит/сек
  93. ElementCount : 1356
  94. Размер потока : 80,8 Кбайт (0%)
  95. Язык : Russian
  96. Default : Нет
  97. Forced : Нет
  98.  
  99. Текст #2
  100. Идентификатор : 5
  101. Формат : UTF-8
  102. Идентификатор кодека : S_TEXT/UTF8
  103. Идентификатор кодека/Информация : UTF-8 Plain Text
  104. Продолжительность : 1 ч. 59 м.
  105. Битрейт : 54 бит/сек
  106. ElementCount : 1361
  107. Размер потока : 47,8 Кбайт (0%)
  108. Заголовок : English
  109. Язык : English
  110. Default : Нет
  111. Forced : Нет
  112.  
  113. Меню
  114. 00:00:00.000 : en:00:00:00.000
  115. 00:09:55.360 : en:00:09:55.360
  116. 00:20:36.160 : en:00:20:36.160
  117. 00:32:45.720 : en:00:32:45.720
  118. 00:40:26.240 : en:00:40:26.240
  119. 00:49:45.520 : en:00:49:45.520
  120. 01:00:14.840 : en:01:00:14.840
  121. 01:09:56.000 : en:01:09:56.000
  122. 01:23:13.400 : en:01:23:13.400
  123. 01:30:31.000 : en:01:30:31.000
  124. 01:40:39.440 : en:01:40:39.440
  125. 01:49:55.680 : en:01:49:55.680
RAW Paste Data