mft39anton

Untitled

Dec 9th, 2013
43
Never
Not a member of Pastebin yet? Sign Up, it unlocks many cool features!
  1. Disc Title: DISK_2
  2. Disc Size: 24 704 463 596 bytes
  3. Protection: AACS
  4. BD-Java: Yes
  5. BDInfo: 0.5.8
  6.  
  7. Notes:
  8.  
  9. BDINFO HOME:
  10. Cinema Squid
  11. http://www.cinemasquid.com/blu-ray/tools/bdinfo
  12.  
  13. INCLUDES FORUMS REPORT FOR:
  14. AVS Forum Blu-ray Audio and Video Specifications Thread
  15. http://www.avsforum.com/avs-vb/showthread.php?t=1155731
  16.  
  17.  
  18. ********************
  19. PLAYLIST: 01004.MPLS
  20. ********************
  21.  
  22. <--- BEGIN FORUMS PASTE --->
  23. [code]
  24. Total Video
  25. Title Codec Length Movie Size Disc Size Bitrate Bitrate Main Audio Track Secondary Audio Track
  26. ----- ------ ------- -------------- -------------- ------- ------- ------------------ ---------------------
  27. 01004.MPLS AVC 2:00:11 20 574 234 624 24 704 463 596 22,82 20,00 LPCM 2.0 1536Kbps (48kHz/16-bit)
  28. [/code]
  29.  
  30. [code]
  31.  
  32. DISC INFO:
  33.  
  34. Disc Title: DISK_2
  35. Disc Size: 24 704 463 596 bytes
  36. Protection: AACS
  37. BD-Java: Yes
  38. BDInfo: 0.5.8
  39.  
  40. PLAYLIST REPORT:
  41.  
  42. Name: 01004.MPLS
  43. Length: 2:00:11.791 (h:m:s.ms)
  44. Size: 20 574 234 624 bytes
  45. Total Bitrate: 22,82 Mbps
  46.  
  47. VIDEO:
  48.  
  49. Codec Bitrate Description
  50. ----- ------- -----------
  51. MPEG-4 AVC Video 19999 kbps 1080p / 24 fps / 16:9 / High Profile 4.1
  52.  
  53. AUDIO:
  54.  
  55. Codec Language Bitrate Description
  56. ----- -------- ------- -----------
  57. LPCM Audio Undetermined 1536 kbps 2.0 / 48 kHz / 1536 kbps / 16-bit
  58.  
  59. SUBTITLES:
  60.  
  61. Codec Language Bitrate Description
  62. ----- -------- ------- -----------
  63. Presentation Graphics Undetermined 19,764 kbps
  64.  
  65. FILES:
  66.  
  67. Name Time In Length Size Total Bitrate
  68. ---- ------- ------ ---- -------------
  69. 00004.M2TS 0:00:00.000 2:00:11.375 20 574 222 336 22 824
  70. 00007.M2TS 2:00:11.375 0:00:00.416 12 288 236
  71.  
  72. CHAPTERS:
  73.  
  74. Number Time In Length Avg Video Rate Max 1-Sec Rate Max 1-Sec Time Max 5-Sec Rate Max 5-Sec Time Max 10Sec Rate Max 10Sec Time Avg Frame Size Max Frame Size Max Frame Time
  75. ------ ------- ------ -------------- -------------- -------------- -------------- -------------- -------------- -------------- -------------- -------------- --------------
  76. 1 0:00:00.000 0:02:08.125 13 731 kbps 41 845 kbps 00:01:15.583 27 749 kbps 00:01:14.083 22 201 kbps 00:01:11.708 71 493 bytes 403 232 bytes 00:01:14.625
  77. 2 0:02:08.125 0:11:57.708 23 221 kbps 51 735 kbps 00:02:37.541 34 520 kbps 00:04:01.583 31 012 kbps 00:10:26.083 120 944 bytes 487 880 bytes 00:13:11.083
  78. 3 0:14:05.833 0:07:41.458 19 902 kbps 44 418 kbps 00:14:25.166 35 567 kbps 00:14:25.166 31 477 kbps 00:15:29.625 103 658 bytes 399 509 bytes 00:16:02.750
  79. 4 0:21:47.291 0:12:21.666 19 247 kbps 39 702 kbps 00:28:29.333 33 328 kbps 00:31:57.291 32 043 kbps 00:31:52.958 100 246 bytes 454 933 bytes 00:23:14.458
  80. 5 0:34:08.958 0:05:41.666 17 833 kbps 45 524 kbps 00:35:15.083 34 864 kbps 00:34:38.083 30 525 kbps 00:35:21.583 92 881 bytes 689 944 bytes 00:35:15.625
  81. 6 0:39:50.625 0:17:37.291 18 626 kbps 42 949 kbps 00:48:26.750 34 090 kbps 00:49:16.916 32 756 kbps 00:49:16.833 97 014 bytes 427 148 bytes 00:48:27.791
  82. 7 0:57:27.916 0:08:57.500 20 809 kbps 44 546 kbps 01:02:41.041 35 546 kbps 01:05:50.166 31 874 kbps 00:58:22.833 108 378 bytes 425 373 bytes 01:00:33.708
  83. 8 1:06:25.416 0:02:22.708 20 549 kbps 46 200 kbps 01:06:52.875 34 070 kbps 01:06:52.791 28 213 kbps 01:06:50.416 107 026 bytes 360 049 bytes 01:06:36.916
  84. 9 1:08:48.125 0:13:27.291 23 306 kbps 43 595 kbps 01:11:12.541 35 101 kbps 01:20:00.958 32 434 kbps 01:09:14.208 121 388 bytes 442 646 bytes 01:16:17.875
  85. 10 1:22:15.416 0:04:26.666 20 699 kbps 44 169 kbps 01:23:47.499 35 525 kbps 01:23:47.000 31 002 kbps 01:23:46.999 107 807 bytes 578 688 bytes 01:23:48.041
  86. 11 1:26:42.083 0:02:56.041 19 140 kbps 34 620 kbps 01:28:38.416 28 503 kbps 01:27:08.291 26 708 kbps 01:27:03.249 99 686 bytes 383 279 bytes 01:28:53.625
  87. 12 1:29:38.125 0:04:31.875 20 425 kbps 40 202 kbps 01:32:12.124 33 166 kbps 01:31:16.500 31 446 kbps 01:32:03.374 106 381 bytes 376 812 bytes 01:31:12.875
  88. 13 1:34:10.000 0:07:26.875 22 716 kbps 38 939 kbps 01:34:21.999 35 428 kbps 01:34:21.166 32 627 kbps 01:41:12.333 118 313 bytes 365 761 bytes 01:34:26.125
  89. 14 1:41:36.875 0:05:04.166 20 001 kbps 48 626 kbps 01:45:08.041 32 854 kbps 01:45:04.750 28 620 kbps 01:44:59.291 104 173 bytes 465 637 bytes 01:45:08.791
  90. 15 1:46:41.041 0:02:58.125 15 813 kbps 37 945 kbps 01:48:58.833 32 549 kbps 01:48:55.291 27 527 kbps 01:48:52.541 82 359 bytes 343 851 bytes 01:48:58.875
  91. 16 1:49:39.166 0:10:32.625 16 014 kbps 46 845 kbps 01:54:33.999 32 571 kbps 01:54:32.500 28 293 kbps 01:55:02.916 83 414 bytes 472 198 bytes 01:51:54.041
  92.  
  93. STREAM DIAGNOSTICS:
  94.  
  95. File PID Type Codec Language Seconds Bitrate Bytes Packets
  96. ---- --- ---- ----- -------- -------------- -------------- ------------- -----
  97. 00004.M2TS 4113 (0x1011) 0x1B AVC 7211,292 20 000 18 028 463 813 98 081 760
  98. 00004.M2TS 4352 (0x1100) 0x80 LPCM und (Undetermined) 7211,292 1 542 1 390 344 424 8 653 601
  99. 00004.M2TS 4608 (0x1200) 0x90 PGS und (Undetermined) 7211,292 20 17 816 437 101 577
  100. 00007.M2TS 4113 (0x1011) 0x1B AVC 0,250 168 5 263 32
  101.  
  102. [/code]
  103. <---- END FORUMS PASTE ---->
  104.  
  105. QUICK SUMMARY:
  106.  
  107. Disc Title: DISK_2
  108. Disc Size: 24 704 463 596 bytes
  109. Protection: AACS
  110. BD-Java: Yes
  111. Playlist: 01004.MPLS
  112. Size: 20 574 234 624 bytes
  113. Length: 2:00:11.791
  114. Total Bitrate: 22,82 Mbps
  115. Video: MPEG-4 AVC Video / 19999 kbps / 1080p / 24 fps / 16:9 / High Profile 4.1
  116. Audio: Undetermined / LPCM Audio / 2.0 / 48 kHz / 1536 kbps / 16-bit
  117. Subtitle: Undetermined / 19,764 kbps
  118.  
  119.  
  120. ********************
  121. PLAYLIST: 00004.MPLS
  122. ********************
  123.  
  124. <--- BEGIN FORUMS PASTE --->
  125. [code]
  126. Total Video
  127. Title Codec Length Movie Size Disc Size Bitrate Bitrate Main Audio Track Secondary Audio Track
  128. ----- ------ ------- -------------- -------------- ------- ------- ------------------ ---------------------
  129. 00004.MPLS AVC 2:00:11 20 574 222 336 24 704 463 596 22,82 20,00 LPCM 2.0 1536Kbps (48kHz/16-bit)
  130. [/code]
  131.  
  132. [code]
  133.  
  134. DISC INFO:
  135.  
  136. Disc Title: DISK_2
  137. Disc Size: 24 704 463 596 bytes
  138. Protection: AACS
  139. BD-Java: Yes
  140. BDInfo: 0.5.8
  141.  
  142. PLAYLIST REPORT:
  143.  
  144. Name: 00004.MPLS
  145. Length: 2:00:11.375 (h:m:s.ms)
  146. Size: 20 574 222 336 bytes
  147. Total Bitrate: 22,82 Mbps
  148.  
  149. VIDEO:
  150.  
  151. Codec Bitrate Description
  152. ----- ------- -----------
  153. MPEG-4 AVC Video 20000 kbps 1080p / 24 fps / 16:9 / High Profile 4.1
  154.  
  155. AUDIO:
  156.  
  157. Codec Language Bitrate Description
  158. ----- -------- ------- -----------
  159. LPCM Audio Undetermined 1536 kbps 2.0 / 48 kHz / 1536 kbps / 16-bit
  160.  
  161. SUBTITLES:
  162.  
  163. Codec Language Bitrate Description
  164. ----- -------- ------- -----------
  165. Presentation Graphics Undetermined 19,765 kbps
  166.  
  167. FILES:
  168.  
  169. Name Time In Length Size Total Bitrate
  170. ---- ------- ------ ---- -------------
  171. 00004.M2TS 0:00:00.000 2:00:11.375 20 574 222 336 22 824
  172.  
  173. CHAPTERS:
  174.  
  175. Number Time In Length Avg Video Rate Max 1-Sec Rate Max 1-Sec Time Max 5-Sec Rate Max 5-Sec Time Max 10Sec Rate Max 10Sec Time Avg Frame Size Max Frame Size Max Frame Time
  176. ------ ------- ------ -------------- -------------- -------------- -------------- -------------- -------------- -------------- -------------- -------------- --------------
  177. 1 0:00:00.000 2:00:11.375 20 000 kbps 51 735 kbps 00:02:37.541 35 567 kbps 00:14:25.166 32 756 kbps 00:49:16.833 104 167 bytes 689 944 bytes 00:35:15.625
  178.  
  179. STREAM DIAGNOSTICS:
  180.  
  181. File PID Type Codec Language Seconds Bitrate Bytes Packets
  182. ---- --- ---- ----- -------- -------------- -------------- ------------- -----
  183. 00004.M2TS 4113 (0x1011) 0x1B AVC 7211,292 20 000 18 028 463 813 98 081 760
  184. 00004.M2TS 4352 (0x1100) 0x80 LPCM und (Undetermined) 7211,292 1 542 1 390 344 424 8 653 601
  185. 00004.M2TS 4608 (0x1200) 0x90 PGS und (Undetermined) 7211,292 20 17 816 437 101 577
  186.  
  187. [/code]
  188. <---- END FORUMS PASTE ---->
  189.  
  190. QUICK SUMMARY:
  191.  
  192. Disc Title: DISK_2
  193. Disc Size: 24 704 463 596 bytes
  194. Protection: AACS
  195. BD-Java: Yes
  196. Playlist: 00004.MPLS
  197. Size: 20 574 222 336 bytes
  198. Length: 2:00:11.375
  199. Total Bitrate: 22,82 Mbps
  200. Video: MPEG-4 AVC Video / 20000 kbps / 1080p / 24 fps / 16:9 / High Profile 4.1
  201. Audio: Undetermined / LPCM Audio / 2.0 / 48 kHz / 1536 kbps / 16-bit
  202. Subtitle: Undetermined / 19,765 kbps
  203.  
  204.  
  205. ********************
  206. PLAYLIST: 01005.MPLS
  207. ********************
  208.  
  209. <--- BEGIN FORUMS PASTE --->
  210. [code]
  211. Total Video
  212. Title Codec Length Movie Size Disc Size Bitrate Bitrate Main Audio Track Secondary Audio Track
  213. ----- ------ ------- -------------- -------------- ------- ------- ------------------ ---------------------
  214. 01005.MPLS AVC 0:16:33 2 836 156 416 24 704 463 596 22,83 19,99 LPCM 2.0 1536Kbps (48kHz/16-bit)
  215. [/code]
  216.  
  217. [code]
  218.  
  219. DISC INFO:
  220.  
  221. Disc Title: DISK_2
  222. Disc Size: 24 704 463 596 bytes
  223. Protection: AACS
  224. BD-Java: Yes
  225. BDInfo: 0.5.8
  226.  
  227. PLAYLIST REPORT:
  228.  
  229. Name: 01005.MPLS
  230. Length: 0:16:33.916 (h:m:s.ms)
  231. Size: 2 836 156 416 bytes
  232. Total Bitrate: 22,83 Mbps
  233.  
  234. VIDEO:
  235.  
  236. Codec Bitrate Description
  237. ----- ------- -----------
  238. MPEG-4 AVC Video 19992 kbps 1080p / 24 fps / 16:9 / High Profile 4.1
  239.  
  240. AUDIO:
  241.  
  242. Codec Language Bitrate Description
  243. ----- -------- ------- -----------
  244. LPCM Audio Undetermined 1536 kbps 2.0 / 48 kHz / 1536 kbps / 16-bit
  245.  
  246. SUBTITLES:
  247.  
  248. Codec Language Bitrate Description
  249. ----- -------- ------- -----------
  250. Presentation Graphics Undetermined 31,728 kbps
  251.  
  252. FILES:
  253.  
  254. Name Time In Length Size Total Bitrate
  255. ---- ------- ------ ---- -------------
  256. 00005.M2TS 0:00:00.000 0:16:33.500 2 836 144 128 22 838
  257. 00007.M2TS 0:16:33.500 0:00:00.416 12 288 236
  258.  
  259. CHAPTERS:
  260.  
  261. Number Time In Length Avg Video Rate Max 1-Sec Rate Max 1-Sec Time Max 5-Sec Rate Max 5-Sec Time Max 10Sec Rate Max 10Sec Time Avg Frame Size Max Frame Size Max Frame Time
  262. ------ ------- ------ -------------- -------------- -------------- -------------- -------------- -------------- -------------- -------------- -------------- --------------
  263. 1 0:00:00.000 0:16:33.916 19 992 kbps 42 071 kbps 00:03:39.375 33 456 kbps 00:00:45.666 29 542 kbps 00:14:05.583 104 124 bytes 432 072 bytes 00:10:19.583
  264.  
  265. STREAM DIAGNOSTICS:
  266.  
  267. File PID Type Codec Language Seconds Bitrate Bytes Packets
  268. ---- --- ---- ----- -------- -------------- -------------- ------------- -----
  269. 00005.M2TS 4113 (0x1011) 0x1B AVC 993,417 20 002 2 483 766 317 13 512 712
  270. 00005.M2TS 4352 (0x1100) 0x80 LPCM und (Undetermined) 993,417 1 543 191 546 800 1 192 200
  271. 00005.M2TS 4608 (0x1200) 0x90 PGS und (Undetermined) 993,417 32 3 941 818 22 498
  272. 00007.M2TS 4113 (0x1011) 0x1B AVC 0,250 168 5 263 32
  273.  
  274. [/code]
  275. <---- END FORUMS PASTE ---->
  276.  
  277. QUICK SUMMARY:
  278.  
  279. Disc Title: DISK_2
  280. Disc Size: 24 704 463 596 bytes
  281. Protection: AACS
  282. BD-Java: Yes
  283. Playlist: 01005.MPLS
  284. Size: 2 836 156 416 bytes
  285. Length: 0:16:33.916
  286. Total Bitrate: 22,83 Mbps
  287. Video: MPEG-4 AVC Video / 19992 kbps / 1080p / 24 fps / 16:9 / High Profile 4.1
  288. Audio: Undetermined / LPCM Audio / 2.0 / 48 kHz / 1536 kbps / 16-bit
  289. Subtitle: Undetermined / 31,728 kbps
  290.  
  291.  
  292. ********************
  293. PLAYLIST: 00005.MPLS
  294. ********************
  295.  
  296. <--- BEGIN FORUMS PASTE --->
  297. [code]
  298. Total Video
  299. Title Codec Length Movie Size Disc Size Bitrate Bitrate Main Audio Track Secondary Audio Track
  300. ----- ------ ------- -------------- -------------- ------- ------- ------------------ ---------------------
  301. 00005.MPLS AVC 0:16:33 2 836 144 128 24 704 463 596 22,84 20,00 LPCM 2.0 1536Kbps (48kHz/16-bit)
  302. [/code]
  303.  
  304. [code]
  305.  
  306. DISC INFO:
  307.  
  308. Disc Title: DISK_2
  309. Disc Size: 24 704 463 596 bytes
  310. Protection: AACS
  311. BD-Java: Yes
  312. BDInfo: 0.5.8
  313.  
  314. PLAYLIST REPORT:
  315.  
  316. Name: 00005.MPLS
  317. Length: 0:16:33.500 (h:m:s.ms)
  318. Size: 2 836 144 128 bytes
  319. Total Bitrate: 22,84 Mbps
  320.  
  321. VIDEO:
  322.  
  323. Codec Bitrate Description
  324. ----- ------- -----------
  325. MPEG-4 AVC Video 20000 kbps 1080p / 24 fps / 16:9 / High Profile 4.1
  326.  
  327. AUDIO:
  328.  
  329. Codec Language Bitrate Description
  330. ----- -------- ------- -----------
  331. LPCM Audio Undetermined 1536 kbps 2.0 / 48 kHz / 1536 kbps / 16-bit
  332.  
  333. SUBTITLES:
  334.  
  335. Codec Language Bitrate Description
  336. ----- -------- ------- -----------
  337. Presentation Graphics Undetermined 31,741 kbps
  338.  
  339. FILES:
  340.  
  341. Name Time In Length Size Total Bitrate
  342. ---- ------- ------ ---- -------------
  343. 00005.M2TS 0:00:00.000 0:16:33.500 2 836 144 128 22 838
  344.  
  345. CHAPTERS:
  346.  
  347. Number Time In Length Avg Video Rate Max 1-Sec Rate Max 1-Sec Time Max 5-Sec Rate Max 5-Sec Time Max 10Sec Rate Max 10Sec Time Avg Frame Size Max Frame Size Max Frame Time
  348. ------ ------- ------ -------------- -------------- -------------- -------------- -------------- -------------- -------------- -------------- -------------- --------------
  349. 1 0:00:00.000 0:16:33.500 20 000 kbps 42 071 kbps 00:03:39.375 33 456 kbps 00:00:45.666 29 542 kbps 00:14:05.583 104 167 bytes 432 072 bytes 00:10:19.583
  350.  
  351. STREAM DIAGNOSTICS:
  352.  
  353. File PID Type Codec Language Seconds Bitrate Bytes Packets
  354. ---- --- ---- ----- -------- -------------- -------------- ------------- -----
  355. 00005.M2TS 4113 (0x1011) 0x1B AVC 993,417 20 002 2 483 766 317 13 512 712
  356. 00005.M2TS 4352 (0x1100) 0x80 LPCM und (Undetermined) 993,417 1 543 191 546 800 1 192 200
  357. 00005.M2TS 4608 (0x1200) 0x90 PGS und (Undetermined) 993,417 32 3 941 818 22 498
  358.  
  359. [/code]
  360. <---- END FORUMS PASTE ---->
  361.  
  362. QUICK SUMMARY:
  363.  
  364. Disc Title: DISK_2
  365. Disc Size: 24 704 463 596 bytes
  366. Protection: AACS
  367. BD-Java: Yes
  368. Playlist: 00005.MPLS
  369. Size: 2 836 144 128 bytes
  370. Length: 0:16:33.500
  371. Total Bitrate: 22,84 Mbps
  372. Video: MPEG-4 AVC Video / 20000 kbps / 1080p / 24 fps / 16:9 / High Profile 4.1
  373. Audio: Undetermined / LPCM Audio / 2.0 / 48 kHz / 1536 kbps / 16-bit
  374. Subtitle: Undetermined / 31,741 kbps
  375.  
  376.  
  377. ********************
  378. PLAYLIST: 01006.MPLS
  379. ********************
  380.  
  381. <--- BEGIN FORUMS PASTE --->
  382. [code]
  383. Total Video
  384. Title Codec Length Movie Size Disc Size Bitrate Bitrate Main Audio Track Secondary Audio Track
  385. ----- ------ ------- -------------- -------------- ------- ------- ------------------ ---------------------
  386. 01006.MPLS AVC 0:03:40 626 817 024 24 704 463 596 22,76 19,97 LPCM 2.0 1536Kbps (48kHz/16-bit)
  387. [/code]
  388.  
  389. [code]
  390.  
  391. DISC INFO:
  392.  
  393. Disc Title: DISK_2
  394. Disc Size: 24 704 463 596 bytes
  395. Protection: AACS
  396. BD-Java: Yes
  397. BDInfo: 0.5.8
  398.  
  399. PLAYLIST REPORT:
  400.  
  401. Name: 01006.MPLS
  402. Length: 0:03:40.291 (h:m:s.ms)
  403. Size: 626 817 024 bytes
  404. Total Bitrate: 22,76 Mbps
  405.  
  406. VIDEO:
  407.  
  408. Codec Bitrate Description
  409. ----- ------- -----------
  410. MPEG-4 AVC Video 19965 kbps 1080p / 24 fps / 16:9 / High Profile 4.1
  411.  
  412. AUDIO:
  413.  
  414. Codec Language Bitrate Description
  415. ----- -------- ------- -----------
  416. LPCM Audio Undetermined 1536 kbps 2.0 / 48 kHz / 1536 kbps / 16-bit
  417.  
  418. FILES:
  419.  
  420. Name Time In Length Size Total Bitrate
  421. ---- ------- ------ ---- -------------
  422. 00006.M2TS 0:00:00.000 0:03:39.875 626 804 736 22 806
  423. 00007.M2TS 0:03:39.875 0:00:00.416 12 288 236
  424.  
  425. CHAPTERS:
  426.  
  427. Number Time In Length Avg Video Rate Max 1-Sec Rate Max 1-Sec Time Max 5-Sec Rate Max 5-Sec Time Max 10Sec Rate Max 10Sec Time Avg Frame Size Max Frame Size Max Frame Time
  428. ------ ------- ------ -------------- -------------- -------------- -------------- -------------- -------------- -------------- -------------- -------------- --------------
  429. 1 0:00:00.000 0:03:40.291 19 965 kbps 40 626 kbps 00:00:36.458 35 098 kbps 00:00:36.250 32 628 kbps 00:00:35.958 103 986 bytes 881 601 bytes 00:03:29.000
  430.  
  431. STREAM DIAGNOSTICS:
  432.  
  433. File PID Type Codec Language Seconds Bitrate Bytes Packets
  434. ---- --- ---- ----- -------- -------------- -------------- ------------- -----
  435. 00006.M2TS 4113 (0x1011) 0x1B AVC 219,750 20 014 549 768 847 2 990 944
  436. 00006.M2TS 4352 (0x1100) 0x80 LPCM und (Undetermined) 219,750 1 543 42 391 900 263 850
  437. 00007.M2TS 4113 (0x1011) 0x1B AVC 0,250 168 5 263 32
  438.  
  439. [/code]
  440. <---- END FORUMS PASTE ---->
  441.  
  442. QUICK SUMMARY:
  443.  
  444. Disc Title: DISK_2
  445. Disc Size: 24 704 463 596 bytes
  446. Protection: AACS
  447. BD-Java: Yes
  448. Playlist: 01006.MPLS
  449. Size: 626 817 024 bytes
  450. Length: 0:03:40.291
  451. Total Bitrate: 22,76 Mbps
  452. Video: MPEG-4 AVC Video / 19965 kbps / 1080p / 24 fps / 16:9 / High Profile 4.1
  453. Audio: Undetermined / LPCM Audio / 2.0 / 48 kHz / 1536 kbps / 16-bit
  454.  
  455.  
  456. ********************
  457. PLAYLIST: 00006.MPLS
  458. ********************
  459.  
  460. <--- BEGIN FORUMS PASTE --->
  461. [code]
  462. Total Video
  463. Title Codec Length Movie Size Disc Size Bitrate Bitrate Main Audio Track Secondary Audio Track
  464. ----- ------ ------- -------------- -------------- ------- ------- ------------------ ---------------------
  465. 00006.MPLS AVC 0:03:39 626 804 736 24 704 463 596 22,81 20,00 LPCM 2.0 1536Kbps (48kHz/16-bit)
  466. [/code]
  467.  
  468. [code]
  469.  
  470. DISC INFO:
  471.  
  472. Disc Title: DISK_2
  473. Disc Size: 24 704 463 596 bytes
  474. Protection: AACS
  475. BD-Java: Yes
  476. BDInfo: 0.5.8
  477.  
  478. PLAYLIST REPORT:
  479.  
  480. Name: 00006.MPLS
  481. Length: 0:03:39.875 (h:m:s.ms)
  482. Size: 626 804 736 bytes
  483. Total Bitrate: 22,81 Mbps
  484.  
  485. VIDEO:
  486.  
  487. Codec Bitrate Description
  488. ----- ------- -----------
  489. MPEG-4 AVC Video 20003 kbps 1080p / 24 fps / 16:9 / High Profile 4.1
  490.  
  491. AUDIO:
  492.  
  493. Codec Language Bitrate Description
  494. ----- -------- ------- -----------
  495. LPCM Audio Undetermined 1536 kbps 2.0 / 48 kHz / 1536 kbps / 16-bit
  496.  
  497. FILES:
  498.  
  499. Name Time In Length Size Total Bitrate
  500. ---- ------- ------ ---- -------------
  501. 00006.M2TS 0:00:00.000 0:03:39.875 626 804 736 22 806
  502.  
  503. CHAPTERS:
  504.  
  505. Number Time In Length Avg Video Rate Max 1-Sec Rate Max 1-Sec Time Max 5-Sec Rate Max 5-Sec Time Max 10Sec Rate Max 10Sec Time Avg Frame Size Max Frame Size Max Frame Time
  506. ------ ------- ------ -------------- -------------- -------------- -------------- -------------- -------------- -------------- -------------- -------------- --------------
  507. 1 0:00:00.000 0:03:39.875 20 003 kbps 40 626 kbps 00:00:36.458 35 098 kbps 00:00:36.250 32 628 kbps 00:00:35.958 104 182 bytes 881 601 bytes 00:03:29.000
  508.  
  509. STREAM DIAGNOSTICS:
  510.  
  511. File PID Type Codec Language Seconds Bitrate Bytes Packets
  512. ---- --- ---- ----- -------- -------------- -------------- ------------- -----
  513. 00006.M2TS 4113 (0x1011) 0x1B AVC 219,750 20 014 549 768 847 2 990 944
  514. 00006.M2TS 4352 (0x1100) 0x80 LPCM und (Undetermined) 219,750 1 543 42 391 900 263 850
  515.  
  516. [/code]
  517. <---- END FORUMS PASTE ---->
  518.  
  519. QUICK SUMMARY:
  520.  
  521. Disc Title: DISK_2
  522. Disc Size: 24 704 463 596 bytes
  523. Protection: AACS
  524. BD-Java: Yes
  525. Playlist: 00006.MPLS
  526. Size: 626 804 736 bytes
  527. Length: 0:03:39.875
  528. Total Bitrate: 22,81 Mbps
  529. Video: MPEG-4 AVC Video / 20003 kbps / 1080p / 24 fps / 16:9 / High Profile 4.1
  530. Audio: Undetermined / LPCM Audio / 2.0 / 48 kHz / 1536 kbps / 16-bit
  531.  
  532.  
  533. ********************
  534. PLAYLIST: 01001.MPLS
  535. ********************
  536.  
  537. <--- BEGIN FORUMS PASTE --->
  538. [code]
  539. Total Video
  540. Title Codec Length Movie Size Disc Size Bitrate Bitrate Main Audio Track Secondary Audio Track
  541. ----- ------ ------- -------------- -------------- ------- ------- ------------------ ---------------------
  542. 01001.MPLS AVC 0:00:45 127 653 888 24 704 463 596 22,53 19,75 LPCM 2.0 1536Kbps (48kHz/16-bit)
  543. [/code]
  544.  
  545. [code]
  546.  
  547. DISC INFO:
  548.  
  549. Disc Title: DISK_2
  550. Disc Size: 24 704 463 596 bytes
  551. Protection: AACS
  552. BD-Java: Yes
  553. BDInfo: 0.5.8
  554.  
  555. PLAYLIST REPORT:
  556.  
  557. Name: 01001.MPLS
  558. Length: 0:00:45.333 (h:m:s.ms)
  559. Size: 127 653 888 bytes
  560. Total Bitrate: 22,53 Mbps
  561.  
  562. VIDEO:
  563.  
  564. Codec Bitrate Description
  565. ----- ------- -----------
  566. MPEG-4 AVC Video 19751 kbps 1080p / 24 fps / 16:9 / High Profile 4.1
  567.  
  568. AUDIO:
  569.  
  570. Codec Language Bitrate Description
  571. ----- -------- ------- -----------
  572. LPCM Audio Undetermined 1536 kbps 2.0 / 48 kHz / 1536 kbps / 16-bit
  573.  
  574. FILES:
  575.  
  576. Name Time In Length Size Total Bitrate
  577. ---- ------- ------ ---- -------------
  578. 00001.M2TS 0:00:00.000 0:00:44.916 127 641 600 22 734
  579. 00007.M2TS 0:00:44.916 0:00:00.416 12 288 236
  580.  
  581. CHAPTERS:
  582.  
  583. Number Time In Length Avg Video Rate Max 1-Sec Rate Max 1-Sec Time Max 5-Sec Rate Max 5-Sec Time Max 10Sec Rate Max 10Sec Time Avg Frame Size Max Frame Size Max Frame Time
  584. ------ ------- ------ -------------- -------------- -------------- -------------- -------------- -------------- -------------- -------------- -------------- --------------
  585. 1 0:00:00.000 0:00:45.333 19 751 kbps 42 049 kbps 00:00:34.000 32 830 kbps 00:00:33.041 26 729 kbps 00:00:27.041 102 868 bytes 537 278 bytes 00:00:06.000
  586.  
  587. STREAM DIAGNOSTICS:
  588.  
  589. File PID Type Codec Language Seconds Bitrate Bytes Packets
  590. ---- --- ---- ----- -------- -------------- -------------- ------------- -----
  591. 00001.M2TS 4113 (0x1011) 0x1B AVC 44,792 19 989 111 915 253 608 863
  592. 00001.M2TS 4352 (0x1100) 0x80 LPCM und (Undetermined) 44,792 1 547 8 660 576 53 904
  593. 00007.M2TS 4113 (0x1011) 0x1B AVC 0,250 168 5 263 32
  594.  
  595. [/code]
  596. <---- END FORUMS PASTE ---->
  597.  
  598. QUICK SUMMARY:
  599.  
  600. Disc Title: DISK_2
  601. Disc Size: 24 704 463 596 bytes
  602. Protection: AACS
  603. BD-Java: Yes
  604. Playlist: 01001.MPLS
  605. Size: 127 653 888 bytes
  606. Length: 0:00:45.333
  607. Total Bitrate: 22,53 Mbps
  608. Video: MPEG-4 AVC Video / 19751 kbps / 1080p / 24 fps / 16:9 / High Profile 4.1
  609. Audio: Undetermined / LPCM Audio / 2.0 / 48 kHz / 1536 kbps / 16-bit
  610.  
  611.  
  612. ********************
  613. PLAYLIST: 00001.MPLS
  614. ********************
  615.  
  616. <--- BEGIN FORUMS PASTE --->
  617. [code]
  618. Total Video
  619. Title Codec Length Movie Size Disc Size Bitrate Bitrate Main Audio Track Secondary Audio Track
  620. ----- ------ ------- -------------- -------------- ------- ------- ------------------ ---------------------
  621. 00001.MPLS AVC 0:00:44 127 641 600 24 704 463 596 22,73 19,93 LPCM 2.0 1536Kbps (48kHz/16-bit)
  622. [/code]
  623.  
  624. [code]
  625.  
  626. DISC INFO:
  627.  
  628. Disc Title: DISK_2
  629. Disc Size: 24 704 463 596 bytes
  630. Protection: AACS
  631. BD-Java: Yes
  632. BDInfo: 0.5.8
  633.  
  634. PLAYLIST REPORT:
  635.  
  636. Name: 00001.MPLS
  637. Length: 0:00:44.916 (h:m:s.ms)
  638. Size: 127 641 600 bytes
  639. Total Bitrate: 22,73 Mbps
  640.  
  641. VIDEO:
  642.  
  643. Codec Bitrate Description
  644. ----- ------- -----------
  645. MPEG-4 AVC Video 19933 kbps 1080p / 24 fps / 16:9 / High Profile 4.1
  646.  
  647. AUDIO:
  648.  
  649. Codec Language Bitrate Description
  650. ----- -------- ------- -----------
  651. LPCM Audio Undetermined 1536 kbps 2.0 / 48 kHz / 1536 kbps / 16-bit
  652.  
  653. FILES:
  654.  
  655. Name Time In Length Size Total Bitrate
  656. ---- ------- ------ ---- -------------
  657. 00001.M2TS 0:00:00.000 0:00:44.916 127 641 600 22 734
  658.  
  659. CHAPTERS:
  660.  
  661. Number Time In Length Avg Video Rate Max 1-Sec Rate Max 1-Sec Time Max 5-Sec Rate Max 5-Sec Time Max 10Sec Rate Max 10Sec Time Avg Frame Size Max Frame Size Max Frame Time
  662. ------ ------- ------ -------------- -------------- -------------- -------------- -------------- -------------- -------------- -------------- -------------- --------------
  663. 1 0:00:00.000 0:00:44.916 19 933 kbps 42 049 kbps 00:00:34.000 32 830 kbps 00:00:33.041 26 729 kbps 00:00:27.041 103 817 bytes 537 278 bytes 00:00:06.000
  664.  
  665. STREAM DIAGNOSTICS:
  666.  
  667. File PID Type Codec Language Seconds Bitrate Bytes Packets
  668. ---- --- ---- ----- -------- -------------- -------------- ------------- -----
  669. 00001.M2TS 4113 (0x1011) 0x1B AVC 44,792 19 989 111 915 253 608 863
  670. 00001.M2TS 4352 (0x1100) 0x80 LPCM und (Undetermined) 44,792 1 547 8 660 576 53 904
  671.  
  672. [/code]
  673. <---- END FORUMS PASTE ---->
  674.  
  675. QUICK SUMMARY:
  676.  
  677. Disc Title: DISK_2
  678. Disc Size: 24 704 463 596 bytes
  679. Protection: AACS
  680. BD-Java: Yes
  681. Playlist: 00001.MPLS
  682. Size: 127 641 600 bytes
  683. Length: 0:00:44.916
  684. Total Bitrate: 22,73 Mbps
  685. Video: MPEG-4 AVC Video / 19933 kbps / 1080p / 24 fps / 16:9 / High Profile 4.1
  686. Audio: Undetermined / LPCM Audio / 2.0 / 48 kHz / 1536 kbps / 16-bit
  687.  
  688.  
  689. ********************
  690. PLAYLIST: 00002.MPLS
  691. ********************
  692.  
  693. <--- BEGIN FORUMS PASTE --->
  694. [code]
  695. Total Video
  696. Title Codec Length Movie Size Disc Size Bitrate Bitrate Main Audio Track Secondary Audio Track
  697. ----- ------ ------- -------------- -------------- ------- ------- ------------------ ---------------------
  698. 00002.MPLS AVC 0:01:41 287 778 816 24 704 463 596 22,79 19,99 LPCM 2.0 1536Kbps (48kHz/16-bit)
  699. [/code]
  700.  
  701. [code]
  702.  
  703. DISC INFO:
  704.  
  705. Disc Title: DISK_2
  706. Disc Size: 24 704 463 596 bytes
  707. Protection: AACS
  708. BD-Java: Yes
  709. BDInfo: 0.5.8
  710.  
  711. PLAYLIST REPORT:
  712.  
  713. Name: 00002.MPLS
  714. Length: 0:01:41.000 (h:m:s.ms)
  715. Size: 287 778 816 bytes
  716. Total Bitrate: 22,79 Mbps
  717.  
  718. VIDEO:
  719.  
  720. Codec Bitrate Description
  721. ----- ------- -----------
  722. MPEG-4 AVC Video 19992 kbps 1080p / 24 fps / 16:9 / High Profile 4.1
  723.  
  724. AUDIO:
  725.  
  726. Codec Language Bitrate Description
  727. ----- -------- ------- -----------
  728. LPCM Audio Undetermined 1536 kbps 2.0 / 48 kHz / 1536 kbps / 16-bit
  729.  
  730. FILES:
  731.  
  732. Name Time In Length Size Total Bitrate
  733. ---- ------- ------ ---- -------------
  734. 00002.M2TS 0:00:00.000 0:01:41.000 287 778 816 22 794
  735.  
  736. CHAPTERS:
  737.  
  738. Number Time In Length Avg Video Rate Max 1-Sec Rate Max 1-Sec Time Max 5-Sec Rate Max 5-Sec Time Max 10Sec Rate Max 10Sec Time Avg Frame Size Max Frame Size Max Frame Time
  739. ------ ------- ------ -------------- -------------- -------------- -------------- -------------- -------------- -------------- -------------- -------------- --------------
  740. 1 0:00:00.000 0:01:41.000 19 991 kbps 29 063 kbps 00:00:10.958 25 140 kbps 00:00:11.291 22 822 kbps 00:00:10.958 104 122 bytes 511 065 bytes 00:00:12.000
  741.  
  742. STREAM DIAGNOSTICS:
  743.  
  744. File PID Type Codec Language Seconds Bitrate Bytes Packets
  745. ---- --- ---- ----- -------- -------------- -------------- ------------- -----
  746. 00002.M2TS 4113 (0x1011) 0x1B AVC 100,875 20 016 252 392 684 1 373 125
  747. 00002.M2TS 4352 (0x1100) 0x80 LPCM und (Undetermined) 100,875 1 544 19 472 800 121 200
  748.  
  749. [/code]
  750. <---- END FORUMS PASTE ---->
  751.  
  752. QUICK SUMMARY:
  753.  
  754. Disc Title: DISK_2
  755. Disc Size: 24 704 463 596 bytes
  756. Protection: AACS
  757. BD-Java: Yes
  758. Playlist: 00002.MPLS
  759. Size: 287 778 816 bytes
  760. Length: 0:01:41.000
  761. Total Bitrate: 22,79 Mbps
  762. Video: MPEG-4 AVC Video / 19992 kbps / 1080p / 24 fps / 16:9 / High Profile 4.1
  763. Audio: Undetermined / LPCM Audio / 2.0 / 48 kHz / 1536 kbps / 16-bit
  764.  
  765.  
  766. ********************
  767. PLAYLIST: 01002.MPLS
  768. ********************
  769.  
  770. <--- BEGIN FORUMS PASTE --->
  771. [code]
  772. Total Video
  773. Title Codec Length Movie Size Disc Size Bitrate Bitrate Main Audio Track Secondary Audio Track
  774. ----- ------ ------- -------------- -------------- ------- ------- ------------------ ---------------------
  775. 01002.MPLS AVC 0:01:41 287 778 816 24 704 463 596 22,79 19,99 LPCM 2.0 1536Kbps (48kHz/16-bit)
  776. [/code]
  777.  
  778. [code]
  779.  
  780. DISC INFO:
  781.  
  782. Disc Title: DISK_2
  783. Disc Size: 24 704 463 596 bytes
  784. Protection: AACS
  785. BD-Java: Yes
  786. BDInfo: 0.5.8
  787.  
  788. PLAYLIST REPORT:
  789.  
  790. Name: 01002.MPLS
  791. Length: 0:01:41.000 (h:m:s.ms)
  792. Size: 287 778 816 bytes
  793. Total Bitrate: 22,79 Mbps
  794.  
  795. VIDEO:
  796.  
  797. Codec Bitrate Description
  798. ----- ------- -----------
  799. MPEG-4 AVC Video 19992 kbps 1080p / 24 fps / 16:9 / High Profile 4.1
  800.  
  801. AUDIO:
  802.  
  803. Codec Language Bitrate Description
  804. ----- -------- ------- -----------
  805. LPCM Audio Undetermined 1536 kbps 2.0 / 48 kHz / 1536 kbps / 16-bit
  806.  
  807. FILES:
  808.  
  809. Name Time In Length Size Total Bitrate
  810. ---- ------- ------ ---- -------------
  811. 00002.M2TS 0:00:00.000 0:01:41.000 287 778 816 22 794
  812.  
  813. CHAPTERS:
  814.  
  815. Number Time In Length Avg Video Rate Max 1-Sec Rate Max 1-Sec Time Max 5-Sec Rate Max 5-Sec Time Max 10Sec Rate Max 10Sec Time Avg Frame Size Max Frame Size Max Frame Time
  816. ------ ------- ------ -------------- -------------- -------------- -------------- -------------- -------------- -------------- -------------- -------------- --------------
  817. 1 0:00:00.000 0:00:14.416 15 099 kbps 29 063 kbps 00:00:10.958 23 062 kbps 00:00:09.333 16 756 kbps 00:00:04.375 78 413 bytes 511 065 bytes 00:00:12.000
  818. 2 0:00:14.416 0:01:26.583 20 806 kbps 28 725 kbps 00:00:14.958 22 712 kbps 00:01:21.291 22 056 kbps 00:01:20.958 108 418 bytes 495 366 bytes 00:00:15.000
  819.  
  820. STREAM DIAGNOSTICS:
  821.  
  822. File PID Type Codec Language Seconds Bitrate Bytes Packets
  823. ---- --- ---- ----- -------- -------------- -------------- ------------- -----
  824. 00002.M2TS 4113 (0x1011) 0x1B AVC 100,875 20 016 252 392 684 1 373 125
  825. 00002.M2TS 4352 (0x1100) 0x80 LPCM und (Undetermined) 100,875 1 544 19 472 800 121 200
  826.  
  827. [/code]
  828. <---- END FORUMS PASTE ---->
  829.  
  830. QUICK SUMMARY:
  831.  
  832. Disc Title: DISK_2
  833. Disc Size: 24 704 463 596 bytes
  834. Protection: AACS
  835. BD-Java: Yes
  836. Playlist: 01002.MPLS
  837. Size: 287 778 816 bytes
  838. Length: 0:01:41.000
  839. Total Bitrate: 22,79 Mbps
  840. Video: MPEG-4 AVC Video / 19992 kbps / 1080p / 24 fps / 16:9 / High Profile 4.1
  841. Audio: Undetermined / LPCM Audio / 2.0 / 48 kHz / 1536 kbps / 16-bit
  842.  
  843.  
  844. ********************
  845. PLAYLIST: 00003.MPLS
  846. ********************
  847.  
  848. <--- BEGIN FORUMS PASTE --->
  849. [code]
  850. Total Video
  851. Title Codec Length Movie Size Disc Size Bitrate Bitrate Main Audio Track Secondary Audio Track
  852. ----- ------ ------- -------------- -------------- ------- ------- ------------------ ---------------------
  853. 00003.MPLS AVC 0:01:23 238 774 272 24 704 463 596 22,82 20,02 LPCM 2.0 1536Kbps (48kHz/16-bit)
  854. [/code]
  855.  
  856. [code]
  857.  
  858. DISC INFO:
  859.  
  860. Disc Title: DISK_2
  861. Disc Size: 24 704 463 596 bytes
  862. Protection: AACS
  863. BD-Java: Yes
  864. BDInfo: 0.5.8
  865.  
  866. PLAYLIST REPORT:
  867.  
  868. Name: 00003.MPLS
  869. Length: 0:01:23.708 (h:m:s.ms)
  870. Size: 238 774 272 bytes
  871. Total Bitrate: 22,82 Mbps
  872.  
  873. VIDEO:
  874.  
  875. Codec Bitrate Description
  876. ----- ------- -----------
  877. MPEG-4 AVC Video 20016 kbps 1080p / 24 fps / 16:9 / High Profile 4.1
  878.  
  879. AUDIO:
  880.  
  881. Codec Language Bitrate Description
  882. ----- -------- ------- -----------
  883. LPCM Audio Undetermined 1536 kbps 2.0 / 48 kHz / 1536 kbps / 16-bit
  884.  
  885. FILES:
  886.  
  887. Name Time In Length Size Total Bitrate
  888. ---- ------- ------ ---- -------------
  889. 00003.M2TS 0:00:00.000 0:01:23.708 238 774 272 22 820
  890.  
  891. CHAPTERS:
  892.  
  893. Number Time In Length Avg Video Rate Max 1-Sec Rate Max 1-Sec Time Max 5-Sec Rate Max 5-Sec Time Max 10Sec Rate Max 10Sec Time Avg Frame Size Max Frame Size Max Frame Time
  894. ------ ------- ------ -------------- -------------- -------------- -------------- -------------- -------------- -------------- -------------- -------------- --------------
  895. 1 0:00:00.000 0:01:23.708 20 016 kbps 26 023 kbps 00:00:55.458 21 614 kbps 00:01:10.666 21 651 kbps 00:01:07.458 104 251 bytes 537 549 bytes 00:00:30.500
  896.  
  897. STREAM DIAGNOSTICS:
  898.  
  899. File PID Type Codec Language Seconds Bitrate Bytes Packets
  900. ---- --- ---- ----- -------- -------------- -------------- ------------- -----
  901. 00003.M2TS 4113 (0x1011) 0x1B AVC 83,625 20 036 209 440 014 1 139 417
  902. 00003.M2TS 4352 (0x1100) 0x80 LPCM und (Undetermined) 83,625 1 544 16 139 288 100 452
  903.  
  904. [/code]
  905. <---- END FORUMS PASTE ---->
  906.  
  907. QUICK SUMMARY:
  908.  
  909. Disc Title: DISK_2
  910. Disc Size: 24 704 463 596 bytes
  911. Protection: AACS
  912. BD-Java: Yes
  913. Playlist: 00003.MPLS
  914. Size: 238 774 272 bytes
  915. Length: 0:01:23.708
  916. Total Bitrate: 22,82 Mbps
  917. Video: MPEG-4 AVC Video / 20016 kbps / 1080p / 24 fps / 16:9 / High Profile 4.1
  918. Audio: Undetermined / LPCM Audio / 2.0 / 48 kHz / 1536 kbps / 16-bit
  919.  
  920.  
  921. ********************
  922. PLAYLIST: 01003.MPLS
  923. ********************
  924.  
  925. <--- BEGIN FORUMS PASTE --->
  926. [code]
  927. Total Video
  928. Title Codec Length Movie Size Disc Size Bitrate Bitrate Main Audio Track Secondary Audio Track
  929. ----- ------ ------- -------------- -------------- ------- ------- ------------------ ---------------------
  930. 01003.MPLS AVC 0:01:23 238 774 272 24 704 463 596 22,82 20,02 LPCM 2.0 1536Kbps (48kHz/16-bit)
  931. [/code]
  932.  
  933. [code]
  934.  
  935. DISC INFO:
  936.  
  937. Disc Title: DISK_2
  938. Disc Size: 24 704 463 596 bytes
  939. Protection: AACS
  940. BD-Java: Yes
  941. BDInfo: 0.5.8
  942.  
  943. PLAYLIST REPORT:
  944.  
  945. Name: 01003.MPLS
  946. Length: 0:01:23.708 (h:m:s.ms)
  947. Size: 238 774 272 bytes
  948. Total Bitrate: 22,82 Mbps
  949.  
  950. VIDEO:
  951.  
  952. Codec Bitrate Description
  953. ----- ------- -----------
  954. MPEG-4 AVC Video 20016 kbps 1080p / 24 fps / 16:9 / High Profile 4.1
  955.  
  956. AUDIO:
  957.  
  958. Codec Language Bitrate Description
  959. ----- -------- ------- -----------
  960. LPCM Audio Undetermined 1536 kbps 2.0 / 48 kHz / 1536 kbps / 16-bit
  961.  
  962. FILES:
  963.  
  964. Name Time In Length Size Total Bitrate
  965. ---- ------- ------ ---- -------------
  966. 00003.M2TS 0:00:00.000 0:01:23.708 238 774 272 22 820
  967.  
  968. CHAPTERS:
  969.  
  970. Number Time In Length Avg Video Rate Max 1-Sec Rate Max 1-Sec Time Max 5-Sec Rate Max 5-Sec Time Max 10Sec Rate Max 10Sec Time Avg Frame Size Max Frame Size Max Frame Time
  971. ------ ------- ------ -------------- -------------- -------------- -------------- -------------- -------------- -------------- -------------- -------------- --------------
  972. 1 0:00:00.000 0:01:23.708 20 016 kbps 26 023 kbps 00:00:55.458 21 614 kbps 00:01:10.666 21 651 kbps 00:01:07.458 104 251 bytes 537 549 bytes 00:00:30.500
  973.  
  974. STREAM DIAGNOSTICS:
  975.  
  976. File PID Type Codec Language Seconds Bitrate Bytes Packets
  977. ---- --- ---- ----- -------- -------------- -------------- ------------- -----
  978. 00003.M2TS 4113 (0x1011) 0x1B AVC 83,625 20 036 209 440 014 1 139 417
  979. 00003.M2TS 4352 (0x1100) 0x80 LPCM und (Undetermined) 83,625 1 544 16 139 288 100 452
  980.  
  981. [/code]
  982. <---- END FORUMS PASTE ---->
  983.  
  984. QUICK SUMMARY:
  985.  
  986. Disc Title: DISK_2
  987. Disc Size: 24 704 463 596 bytes
  988. Protection: AACS
  989. BD-Java: Yes
  990. Playlist: 01003.MPLS
  991. Size: 238 774 272 bytes
  992. Length: 0:01:23.708
  993. Total Bitrate: 22,82 Mbps
  994. Video: MPEG-4 AVC Video / 20016 kbps / 1080p / 24 fps / 16:9 / High Profile 4.1
  995. Audio: Undetermined / LPCM Audio / 2.0 / 48 kHz / 1536 kbps / 16-bit
RAW Paste Data