GrabHD

Untitled

Feb 25th, 2020
90
Never
Not a member of Pastebin yet? Sign Up, it unlocks many cool features!
  1. General
  2. Полное имя : F:TorrentProshchatsyaNeBudem.avi
  3. Формат : AVI
  4. Формат/Информация : Audio Video Interleave
  5. Профиль формата : OpenDML
  6. Размер файла : 1.46 GiB
  7. Продолжительность : 1 h 55 min
  8. Общий поток : 1 816 kb/s
  9. Программа кодирования : XviD4PSP 6.0 / 54.27.101
  10.  
  11. Video
  12. Идентификатор : 0
  13. Формат : MPEG-4 Visual
  14. Профиль формата : Advanced Simple@L5
  15. Настройки формата : BVOP2 / Custom Matrix
  16. Параметр BVOP формата : 2
  17. Параметр QPel формата : No
  18. Параметр GMC формата : No warppoints
  19. Параметр матрицы формата : Custom
  20. Идентификатор кодека : XVID
  21. Идентификатор кодека/Подсказка : XviD
  22. Продолжительность : 1 h 55 min
  23. Битрейт : 1 420 kb/s
  24. Ширина : 720 pixels
  25. Высота : 304 pixels
  26. Соотношение сторон : 2.35:1
  27. Частота кадров : 24.000 FPS
  28. Цветовое пространство : YUV
  29. Субдискретизация насыщенности : 4:2:0
  30. Битовая глубина : 8 bits
  31. Тип развёртки : Progressive
  32. Метод сжатия : Lossy
  33. Бит/(Пиксели*Кадры) : 0.270
  34. Размер потока : 1.14 GiB (78%)
  35. Библиотека кодирования : XviD 67
  36.  
  37. Audio
  38. Идентификатор : 1
  39. Формат : AC-3
  40. Формат/Информация : Audio Coding 3
  41. Идентификатор кодека : 2000
  42. Продолжительность : 1 h 55 min
  43. Вид битрейта : Constant
  44. Битрейт : 384 kb/s
  45. Каналы : 6 channels
  46. Расположение каналов : Front: L C R, Side: L R, LFE
  47. Частота : 48.0 kHz
  48. Частота кадров : 31.250 FPS (1536 SPF)
  49. Битовая глубина : 16 bits
  50. Метод сжатия : Lossy
  51. Размер потока : 317 MiB (21%)
  52. Выравнивание : Aligned on interleaves
  53. Продолжительность промежутка : 32 ms (0.77 video frame)
RAW Paste Data