Guest User

scanlog

a guest
May 15th, 2016
73
Never
Not a member of Pastebin yet? Sign Up, it unlocks many cool features!
  1. HandBrake 0.10.5.0 - 64bit Version
  2. OS: Microsoft Windows NT 6.1.7601 Service Pack 1 - 64bit
  3. CPU: Intel(R) Core(TM) i7 CPU 860 @ 2.80GHz
  4. Ram: 8187 MB,
  5. GPU Information:
  6. AMD Radeon HD 5700 Series - 15.200.1062.1004
  7. Screen: 1920x1200
  8. Temp Dir: C:\Users\Thierry\AppData\Local\Temp\
  9. Install Dir: C:\Program Files\Handbrake
  10. Data Dir: C:\Users\Thierry\AppData\Roaming\HandBrake Team\HandBrake\0.10.5.0
  11.  
  12. -------------------------------------------
  13. [19:22:06] CPU: Intel(R) Core(TM) i7 CPU 860 @ 2.80GHz
  14. [19:22:06] - logical processor count: 8
  15. [19:22:07] OpenCL device #1: Advanced Micro Devices, Inc. Juniper
  16. [19:22:07] - OpenCL version: 1.2 AMD-APP (1800.8)
  17. [19:22:07] - driver version: 1800.8 (VM)
  18. [19:22:07] - device type: GPU
  19. [19:22:07] - supported: YES
  20. [19:22:07] Intel Quick Sync Video support: no
  21. [19:22:07] hb_scan: path=C:\Users\Thierry\Downloads\xxx Everest.mkv, title_index=0
  22. libbluray/bdnav/index_parse.c:162: indx_parse(): error opening C:\Users\Thierry\Downloads\xxx Everest.mkv/BDMV/index.bdmv
  23. libbluray/bdnav/index_parse.c:162: indx_parse(): error opening C:\Users\Thierry\Downloads\xxx Everest.mkv/BDMV/BACKUP/index.bdmv
  24. libbluray/bluray.c:2182: nav_get_title_list(C:\Users\Thierry\Downloads\xxx Everest.mkv) failed
  25. [19:22:07] bd: not a bd - trying as a stream/file instead
  26. libdvdnav: Using dvdnav version 5.0.1
  27. libdvdread:DVDOpenFileUDF:UDFFindFile /VIDEO_TS/VIDEO_TS.IFO failed
  28. libdvdread:DVDOpenFileUDF:UDFFindFile /VIDEO_TS/VIDEO_TS.BUP failed
  29. libdvdread: Can't open file VIDEO_TS.IFO.
  30. libdvdnav: vm: failed to read VIDEO_TS.IFO
  31. [19:22:07] dvd: not a dvd - trying as a stream/file instead
  32. Input #0, matroska,webm, from 'C:\Users\Thierry\Downloads\xxx Everest.mkv':
  33. Metadata:
  34. title :
  35. Duration: 02:01:10.49, start: 0.000000, bitrate: N/A
  36. Stream #0.0(eng): Video: h264 (High), yuv420p, 1920x808, PAR 1:1 DAR 240:101, 23.98 fps, 1k tbn, 47.95 tbc (default)
  37. Metadata:
  38. BPS : 8745545
  39. BPS-eng : 8745545
  40. DURATION : 02:01:10.442000000
  41. DURATION-eng : 02:01:10.442000000
  42. NUMBER_OF_FRAMES: 174316
  43. NUMBER_OF_FRAMES-eng: 174316
  44. NUMBER_OF_BYTES : 7947997663
  45. NUMBER_OF_BYTES-eng: 7947997663
  46. _STATISTICS_WRITING_APP: mkvmerge v8.2.0 ('World of Adventure') 64bit
  47. _STATISTICS_WRITING_APP-eng: mkvmerge v8.2.0 ('World of Adventure') 64bit
  48. _STATISTICS_WRITING_DATE_UTC: 2015-12-16 02:53:38
  49. _STATISTICS_WRITING_DATE_UTC-eng: 2015-12-16 02:53:38
  50. _STATISTICS_TAGS: BPS DURATION NUMBER_OF_FRAMES NUMBER_OF_BYTES
  51. _STATISTICS_TAGS-eng: BPS DURATION NUMBER_OF_FRAMES NUMBER_OF_BYTES
  52. Stream #0.1(eng): Audio: ac3, 48000 Hz, 5.1, fltp, 640 kb/s (default)
  53. Metadata:
  54. BPS : 640000
  55. BPS-eng : 640000
  56. DURATION : 02:01:10.496000000
  57. DURATION-eng : 02:01:10.496000000
  58. NUMBER_OF_FRAMES: 227203
  59. NUMBER_OF_FRAMES-eng: 227203
  60. NUMBER_OF_BYTES : 581639680
  61. NUMBER_OF_BYTES-eng: 581639680
  62. _STATISTICS_WRITING_APP: mkvmerge v8.2.0 ('World of Adventure') 64bit
  63. _STATISTICS_WRITING_APP-eng: mkvmerge v8.2.0 ('World of Adventure') 64bit
  64. _STATISTICS_WRITING_DATE_UTC: 2015-12-16 02:53:38
  65. _STATISTICS_WRITING_DATE_UTC-eng: 2015-12-16 02:53:38
  66. _STATISTICS_TAGS: BPS DURATION NUMBER_OF_FRAMES NUMBER_OF_BYTES
  67. _STATISTICS_TAGS-eng: BPS DURATION NUMBER_OF_FRAMES NUMBER_OF_BYTES
  68. Stream #0.2: Subtitle: [0][0][0][0] / 0x0000 (default)
  69. Metadata:
  70. BPS : 48
  71. BPS-eng : 48
  72. DURATION : 01:54:04.152000000
  73. DURATION-eng : 01:54:04.152000000
  74. NUMBER_OF_FRAMES: 1168
  75. NUMBER_OF_FRAMES-eng: 1168
  76. NUMBER_OF_BYTES : 41240
  77. NUMBER_OF_BYTES-eng: 41240
  78. _STATISTICS_WRITING_APP: mkvmerge v8.2.0 ('World of Adventure') 64bit
  79. _STATISTICS_WRITING_APP-eng: mkvmerge v8.2.0 ('World of Adventure') 64bit
  80. _STATISTICS_WRITING_DATE_UTC: 2015-12-16 02:53:38
  81. _STATISTICS_WRITING_DATE_UTC-eng: 2015-12-16 02:53:38
  82. _STATISTICS_TAGS: BPS DURATION NUMBER_OF_FRAMES NUMBER_OF_BYTES
  83. _STATISTICS_TAGS-eng: BPS DURATION NUMBER_OF_FRAMES NUMBER_OF_BYTES
  84. Stream #0.3: Subtitle: [0][0][0][0] / 0x0000
  85. Metadata:
  86. BPS : 64
  87. BPS-eng : 64
  88. DURATION : 01:50:04.666000000
  89. DURATION-eng : 01:50:04.666000000
  90. NUMBER_OF_FRAMES: 1800
  91. NUMBER_OF_FRAMES-eng: 1800
  92. NUMBER_OF_BYTES : 53217
  93. NUMBER_OF_BYTES-eng: 53217
  94. _STATISTICS_WRITING_APP: mkvmerge v8.2.0 ('World of Adventure') 64bit
  95. _STATISTICS_WRITING_APP-eng: mkvmerge v8.2.0 ('World of Adventure') 64bit
  96. _STATISTICS_WRITING_DATE_UTC: 2015-12-16 02:53:38
  97. _STATISTICS_WRITING_DATE_UTC-eng: 2015-12-16 02:53:38
  98. _STATISTICS_TAGS: BPS DURATION NUMBER_OF_FRAMES NUMBER_OF_BYTES
  99. _STATISTICS_TAGS-eng: BPS DURATION NUMBER_OF_FRAMES NUMBER_OF_BYTES
  100. [19:22:08] scan: decoding previews for title 1
  101. [19:22:09] scan: audio 0x1: ac3, rate=48000Hz, bitrate=640000 English (AC3) (5.1 ch) (Dolby Digital EX)
  102. [19:22:31] scan: 10 previews, 1920x808, 23.976 fps, autocrop = 2/2/0/0, aspect 2.38:1, PAR 1:1
  103. [19:22:31] libhb: scan thread found 1 valid title(s)
RAW Paste Data