Guest User

Artificial.Intelligence.AI.2001.BluRay.DUAL.REMUX.1080p.VC-1.DTS-HD.MA5.1-BdC

a guest
May 11th, 2019
118
Never
Not a member of Pastebin yet? Sign Up, it unlocks many cool features!
  1. General
  2. Unique ID                                : 192050743669380457788600742780993256209 (0x907BA0B7FD86A103BBC0C2530DEBBB11)
  3. Complete name                            : Artificial.Intelligence.AI.2001.BluRay.DUAL.REMUX.1080p.VC-1.DTS-HD.MA5.1-BdC.mkv
  4. Format                                   : Matroska
  5. Format version                           : Version 4
  6. File size                                : 26.9 GiB
  7. Duration                                 : 2 h 25 min
  8. Overall bit rate mode                    : Variable
  9. Overall bit rate                         : 26.4 Mb/s
  10. Encoded date                             : UTC 2019-04-23 10:54:57
  11. Writing application                      : mkvmerge v8.3.0 ('Over the Horizon') 32bit
  12. Writing library                          : libebml v1.3.1 + libmatroska v1.4.2
  13.  
  14. Video
  15. ID                                       : 1
  16. Format                                   : VC-1
  17. Format profile                           : Advanced@L3
  18. Codec ID                                 : V_MS/VFW/FOURCC / WVC1
  19. Codec ID/Hint                            : Microsoft
  20. Duration                                 : 2 h 25 min
  21. Bit rate                                 : 22.1 Mb/s
  22. Width                                    : 1 920 pixels
  23. Height                                   : 1 080 pixels
  24. Display aspect ratio                     : 16:9
  25. Frame rate mode                          : Constant
  26. Frame rate                               : 23.976 (24000/1001) FPS
  27. Color space                              : YUV
  28. Chroma subsampling                       : 4:2:0
  29. Bit depth                                : 8 bits
  30. Scan type                                : Progressive
  31. Compression mode                         : Lossy
  32. Bits/(Pixel*Frame)                       : 0.445
  33. Stream size                              : 22.5 GiB (84%)
  34. Default                                  : Yes
  35. Forced                                   : No
  36.  
  37. Audio #1
  38. ID                                       : 2
  39. Format                                   : DTS ES XLL
  40. Format/Info                              : Digital Theater Systems
  41. Commercial name                          : DTS-HD Master Audio
  42. Codec ID                                 : A_DTS
  43. Duration                                 : 2 h 25 min
  44. Bit rate mode                            : Variable
  45. Bit rate                                 : 3 917 kb/s
  46. Channel(s)                               : 6 channels
  47. Channel(s)_Original                      : 7 channels
  48. Channel layout                           : C L R Ls Rs LFE Cb
  49. Sampling rate                            : 48.0 kHz
  50. Frame rate                               : 93.750 FPS (512 SPF)
  51. Bit depth                                : 24 bits
  52. Compression mode                         : Lossless
  53. Delay relative to video                  : 42 ms
  54. Stream size                              : 3.99 GiB (15%)
  55. Language                                 : English
  56. Default                                  : Yes
  57. Forced                                   : No
  58.  
  59. Audio #2
  60. ID                                       : 3
  61. Format                                   : AC-3
  62. Format/Info                              : Audio Coding 3
  63. Commercial name                          : Dolby Digital
  64. Codec ID                                 : A_AC3
  65. Duration                                 : 2 h 25 min
  66. Bit rate mode                            : Constant
  67. Bit rate                                 : 192 kb/s
  68. Channel(s)                               : 2 channels
  69. Channel layout                           : L R
  70. Sampling rate                            : 48.0 kHz
  71. Frame rate                               : 31.250 FPS (1536 SPF)
  72. Bit depth                                : 16 bits
  73. Compression mode                         : Lossy
  74. Delay relative to video                  : 42 ms
  75. Stream size                              : 200 MiB (1%)
  76. Language                                 : Turkish
  77. Service kind                             : Complete Main
  78. Default                                  : No
  79. Forced                                   : No
  80.  
  81. Text #1
  82. ID                                       : 4
  83. Format                                   : PGS
  84. Muxing mode                              : zlib
  85. Codec ID                                 : S_HDMV/PGS
  86. Codec ID/Info                            : Picture based subtitle format used on BDs/HD-DVDs
  87. Duration                                 : 2 h 24 min
  88. Bit rate                                 : 10.5 kb/s
  89. Count of elements                        : 2664
  90. Stream size                              : 10.9 MiB (0%)
  91. Language                                 : English
  92. Default                                  : Yes
  93. Forced                                   : No
  94.  
  95. Text #2
  96. ID                                       : 5
  97. Format                                   : PGS
  98. Muxing mode                              : zlib
  99. Codec ID                                 : S_HDMV/PGS
  100. Codec ID/Info                            : Picture based subtitle format used on BDs/HD-DVDs
  101. Duration                                 : 2 h 24 min
  102. Bit rate                                 : 10.5 kb/s
  103. Count of elements                        : 2744
  104. Stream size                              : 10.8 MiB (0%)
  105. Language                                 : Chinese
  106. Default                                  : No
  107. Forced                                   : No
  108.  
  109. Text #3
  110. ID                                       : 6
  111. Format                                   : PGS
  112. Muxing mode                              : zlib
  113. Codec ID                                 : S_HDMV/PGS
  114. Codec ID/Info                            : Picture based subtitle format used on BDs/HD-DVDs
  115. Duration                                 : 2 h 24 min
  116. Bit rate                                 : 6 680 b/s
  117. Count of elements                        : 2316
  118. Stream size                              : 6.92 MiB (0%)
  119. Language                                 : Korean
  120. Default                                  : No
  121. Forced                                   : No
  122.  
  123. Text #4
  124. ID                                       : 7
  125. Format                                   : PGS
  126. Muxing mode                              : zlib
  127. Codec ID                                 : S_HDMV/PGS
  128. Codec ID/Info                            : Picture based subtitle format used on BDs/HD-DVDs
  129. Duration                                 : 2 h 24 min
  130. Bit rate                                 : 6 466 b/s
  131. Count of elements                        : 2296
  132. Stream size                              : 6.70 MiB (0%)
  133. Language                                 : Arabic
  134. Default                                  : No
  135. Forced                                   : No
  136.  
  137. Text #5
  138. ID                                       : 8
  139. Format                                   : PGS
  140. Muxing mode                              : zlib
  141. Codec ID                                 : S_HDMV/PGS
  142. Codec ID/Info                            : Picture based subtitle format used on BDs/HD-DVDs
  143. Duration                                 : 2 h 24 min
  144. Bit rate                                 : 8 153 b/s
  145. Count of elements                        : 2306
  146. Stream size                              : 8.45 MiB (0%)
  147. Language                                 : Bulgarian
  148. Default                                  : No
  149. Forced                                   : No
  150.  
  151. Text #6
  152. ID                                       : 9
  153. Format                                   : PGS
  154. Muxing mode                              : zlib
  155. Codec ID                                 : S_HDMV/PGS
  156. Codec ID/Info                            : Picture based subtitle format used on BDs/HD-DVDs
  157. Duration                                 : 2 h 24 min
  158. Bit rate                                 : 7 142 b/s
  159. Count of elements                        : 2286
  160. Stream size                              : 7.40 MiB (0%)
  161. Language                                 : Croatian
  162. Default                                  : No
  163. Forced                                   : No
  164.  
  165. Text #7
  166. ID                                       : 10
  167. Format                                   : PGS
  168. Muxing mode                              : zlib
  169. Codec ID                                 : S_HDMV/PGS
  170. Codec ID/Info                            : Picture based subtitle format used on BDs/HD-DVDs
  171. Duration                                 : 2 h 24 min
  172. Bit rate                                 : 7 435 b/s
  173. Count of elements                        : 2292
  174. Stream size                              : 7.70 MiB (0%)
  175. Language                                 : Czech
  176. Default                                  : No
  177. Forced                                   : No
  178.  
  179. Text #8
  180. ID                                       : 11
  181. Format                                   : PGS
  182. Muxing mode                              : zlib
  183. Codec ID                                 : S_HDMV/PGS
  184. Codec ID/Info                            : Picture based subtitle format used on BDs/HD-DVDs
  185. Duration                                 : 2 h 24 min
  186. Bit rate                                 : 9 028 b/s
  187. Count of elements                        : 2360
  188. Stream size                              : 9.36 MiB (0%)
  189. Language                                 : Estonian
  190. Default                                  : No
  191. Forced                                   : No
  192.  
  193. Text #9
  194. ID                                       : 12
  195. Format                                   : PGS
  196. Muxing mode                              : zlib
  197. Codec ID                                 : S_HDMV/PGS
  198. Codec ID/Info                            : Picture based subtitle format used on BDs/HD-DVDs
  199. Duration                                 : 2 h 24 min
  200. Bit rate                                 : 8 315 b/s
  201. Count of elements                        : 2050
  202. Stream size                              : 8.62 MiB (0%)
  203. Language                                 : Greek
  204. Default                                  : No
  205. Forced                                   : No
  206.  
  207. Text #10
  208. ID                                       : 13
  209. Format                                   : PGS
  210. Muxing mode                              : zlib
  211. Codec ID                                 : S_HDMV/PGS
  212. Codec ID/Info                            : Picture based subtitle format used on BDs/HD-DVDs
  213. Duration                                 : 2 h 24 min
  214. Bit rate                                 : 8 004 b/s
  215. Count of elements                        : 2308
  216. Stream size                              : 8.29 MiB (0%)
  217. Language                                 : Hebrew
  218. Default                                  : No
  219. Forced                                   : No
  220.  
  221. Text #11
  222. ID                                       : 14
  223. Format                                   : PGS
  224. Muxing mode                              : zlib
  225. Codec ID                                 : S_HDMV/PGS
  226. Codec ID/Info                            : Picture based subtitle format used on BDs/HD-DVDs
  227. Duration                                 : 2 h 24 min
  228. Bit rate                                 : 8 275 b/s
  229. Count of elements                        : 2298
  230. Stream size                              : 8.58 MiB (0%)
  231. Language                                 : Hungarian
  232. Default                                  : No
  233. Forced                                   : No
  234.  
  235. Text #12
  236. ID                                       : 15
  237. Format                                   : PGS
  238. Muxing mode                              : zlib
  239. Codec ID                                 : S_HDMV/PGS
  240. Codec ID/Info                            : Picture based subtitle format used on BDs/HD-DVDs
  241. Duration                                 : 2 h 24 min
  242. Bit rate                                 : 8 740 b/s
  243. Count of elements                        : 2286
  244. Stream size                              : 9.04 MiB (0%)
  245. Language                                 : Icelandic
  246. Default                                  : No
  247. Forced                                   : No
  248.  
  249. Text #13
  250. ID                                       : 16
  251. Format                                   : PGS
  252. Muxing mode                              : zlib
  253. Codec ID                                 : S_HDMV/PGS
  254. Codec ID/Info                            : Picture based subtitle format used on BDs/HD-DVDs
  255. Duration                                 : 2 h 24 min
  256. Bit rate                                 : 7 444 b/s
  257. Count of elements                        : 2204
  258. Stream size                              : 7.71 MiB (0%)
  259. Language                                 : Polish
  260. Default                                  : No
  261. Forced                                   : No
  262.  
  263. Text #14
  264. ID                                       : 17
  265. Format                                   : PGS
  266. Muxing mode                              : zlib
  267. Codec ID                                 : S_HDMV/PGS
  268. Codec ID/Info                            : Picture based subtitle format used on BDs/HD-DVDs
  269. Duration                                 : 2 h 24 min
  270. Bit rate                                 : 8 853 b/s
  271. Count of elements                        : 2298
  272. Stream size                              : 9.17 MiB (0%)
  273. Language                                 : Portuguese
  274. Default                                  : No
  275. Forced                                   : No
  276.  
  277. Text #15
  278. ID                                       : 18
  279. Format                                   : PGS
  280. Muxing mode                              : zlib
  281. Codec ID                                 : S_HDMV/PGS
  282. Codec ID/Info                            : Picture based subtitle format used on BDs/HD-DVDs
  283. Duration                                 : 2 h 24 min
  284. Bit rate                                 : 7 979 b/s
  285. Count of elements                        : 2302
  286. Stream size                              : 8.27 MiB (0%)
  287. Language                                 : Romanian
  288. Default                                  : No
  289. Forced                                   : No
  290.  
  291. Text #16
  292. ID                                       : 19
  293. Format                                   : PGS
  294. Muxing mode                              : zlib
  295. Codec ID                                 : S_HDMV/PGS
  296. Codec ID/Info                            : Picture based subtitle format used on BDs/HD-DVDs
  297. Duration                                 : 2 h 24 min
  298. Bit rate                                 : 8 962 b/s
  299. Count of elements                        : 2344
  300. Stream size                              : 9.29 MiB (0%)
  301. Language                                 : Russian
  302. Default                                  : No
  303. Forced                                   : No
  304.  
  305. Text #17
  306. ID                                       : 20
  307. Format                                   : PGS
  308. Muxing mode                              : zlib
  309. Codec ID                                 : S_HDMV/PGS
  310. Codec ID/Info                            : Picture based subtitle format used on BDs/HD-DVDs
  311. Duration                                 : 2 h 24 min
  312. Bit rate                                 : 8 298 b/s
  313. Count of elements                        : 2366
  314. Stream size                              : 8.60 MiB (0%)
  315. Language                                 : Serbian
  316. Default                                  : No
  317. Forced                                   : No
  318.  
  319. Text #18
  320. ID                                       : 21
  321. Format                                   : PGS
  322. Muxing mode                              : zlib
  323. Codec ID                                 : S_HDMV/PGS
  324. Codec ID/Info                            : Picture based subtitle format used on BDs/HD-DVDs
  325. Duration                                 : 2 h 24 min
  326. Bit rate                                 : 7 791 b/s
  327. Count of elements                        : 2370
  328. Stream size                              : 8.06 MiB (0%)
  329. Language                                 : Slovenian
  330. Default                                  : No
  331. Forced                                   : No
  332.  
  333. Text #19
  334. ID                                       : 22
  335. Format                                   : PGS
  336. Muxing mode                              : zlib
  337. Codec ID                                 : S_HDMV/PGS
  338. Codec ID/Info                            : Picture based subtitle format used on BDs/HD-DVDs
  339. Duration                                 : 2 h 24 min
  340. Bit rate                                 : 9 404 b/s
  341. Count of elements                        : 2372
  342. Stream size                              : 9.75 MiB (0%)
  343. Language                                 : Thai
  344. Default                                  : No
  345. Forced                                   : No
  346.  
  347. Text #20
  348. ID                                       : 23
  349. Format                                   : PGS
  350. Muxing mode                              : zlib
  351. Codec ID                                 : S_HDMV/PGS
  352. Codec ID/Info                            : Picture based subtitle format used on BDs/HD-DVDs
  353. Duration                                 : 2 h 24 min
  354. Bit rate                                 : 8 264 b/s
  355. Count of elements                        : 2282
  356. Stream size                              : 8.56 MiB (0%)
  357. Language                                 : Turkish
  358. Default                                  : No
  359. Forced                                   : No
RAW Paste Data