GrabHD

Untitled

Nov 28th, 2020
19
Never
Not a member of Pastebin yet? Sign Up, it unlocks many cool features!
  1. x264 [info]: frame I:1884 Avg QP:13.74 size: 69674
  2. x264 [info]: frame P:49477 Avg QP:16.77 size: 22835
  3. x264 [info]: frame B:169745 Avg QP:18.22 size: 7086
  4. x264 [info]: consecutive B-frames: 3.2% 3.8% 9.3% 16.6% 16.0% 28.5% 10.5% 8.3% 1.6% 0.6% 0.4% 0.4% 0.7%
  5. *********************************
  6.  
  7. Общее
  8. Уникальный идентификатор : 277305364278965929242918192746265886233 (0xD09F120B010384548872FE8210ACBE19)
  9. Полное имя : The.Blackout.2019.BDRip.2.78Gb.x264.MegaPeer.mkv
  10. Формат : Matroska
  11. Версия формата : Version 4
  12. Размер файла : 2,78 Гбайт
  13. Продолжительность : 2 ч. 33 м.
  14. Общий поток : 2 589 Кбит/сек
  15. Название фильма : Аванпост (2019) от MegaPeer
  16. Дата кодирования : UTC 2020-11-28 12:58:05
  17. Программа кодирования : mkvmerge v47.0.0 ('Black Flag') 64-bit
  18. Библиотека кодирования : libebml v1.3.10 + libmatroska v1.5.2
  19. Обложка : Yes
  20. Attachments : cover.jpg
  21.  
  22. Видео
  23. Идентификатор : 1
  24. Формат : AVC
  25. Формат/Информация : Advanced Video Codec
  26. Профиль формата : High@L4.1
  27. Настройки формата : CABAC / 11 Ref Frames
  28. Параметр CABAC формата : Да
  29. Параметр RefFrames формата : 11 кадров
  30. Идентификатор кодека : V_MPEG4/ISO/AVC
  31. Продолжительность : 2 ч. 33 м.
  32. Битрейт : 2 140 Кбит/сек
  33. Ширина : 1 024 пикселя
  34. Высота : 428 пикселей
  35. Соотношение сторон : 2,40:1
  36. Режим частоты кадров : Постоянный
  37. Частота кадров : 24,000 кадра/сек
  38. Цветовое пространство : YUV
  39. Субдискретизация насыщенности : 4:2:0
  40. Битовая глубина : 8 бит
  41. Тип развёртки : Прогрессивная
  42. Бит/(Пиксели*Кадры) : 0.203
  43. Размер потока : 2,29 Гбайт (83%)
  44. Заголовок : stillet@MegaPeer
  45. Библиотека кодирования : x264 core 161 r3018 db0d417
  46. Настройки программы : cabac=1 / ref=11 / deblock=1:-3:-3 / analyse=0x3:0x113 / me=umh / subme=11 / psy=1 / psy_rd=1.00:0.00 / mixed_ref=1 / me_range=48 / chroma_me=1 / trellis=2 / 8x8dct=1 / cqm=0 / deadzone=21,11 / fast_pskip=0 / chroma_qp_offset=-2 / threads=13 / lookahead_threads=3 / sliced_threads=0 / nr=0 / decimate=0 / interlaced=0 / bluray_compat=0 / constrained_intra=0 / bframes=12 / b_pyramid=2 / b_adapt=2 / b_bias=0 / direct=3 / weightb=1 / open_gop=0 / weightp=2 / keyint=240 / keyint_min=23 / scenecut=40 / intra_refresh=0 / rc_lookahead=40 / rc=2pass / mbtree=0 / bitrate=2140 / ratetol=1.0 / qcomp=0.60 / qpmin=0 / qpmax=69 / qpstep=4 / cplxblur=20.0 / qblur=0.5 / vbv_maxrate=50000 / vbv_bufsize=62500 / nal_hrd=none / filler=0 / ip_ratio=1.40 / pb_ratio=1.30 / aq=1:1.10
  47. Язык : German
  48. Default : Да
  49. Forced : Нет
  50.  
  51. Аудио
  52. Идентификатор : 2
  53. Формат : AC-3
  54. Формат/Информация : Audio Coding 3
  55. Коммерческое название : Dolby Digital
  56. Идентификатор кодека : A_AC3
  57. Продолжительность : 2 ч. 33 м.
  58. Вид битрейта : Постоянный
  59. Битрейт : 448 Кбит/сек
  60. Каналы : 6 каналов
  61. Channel layout : L R C LFE Ls Rs
  62. Частота : 48,0 КГц
  63. Частота кадров : 31,250 кадров/сек (1536 SPF)
  64. Метод сжатия : С потерями
  65. Размер потока : 492 Мбайт (17%)
  66. Заголовок : Blu-ray GER
  67. Язык : Russian
  68. Service kind : Complete Main
  69. Default : Да
  70. Forced : Нет
  71.  
  72. Меню
  73. 00:00:00.000 : :DE:01
  74. 00:05:44.500 : :DE:02
  75. 00:15:40.790 : :DE:03
  76. 00:27:29.333 : :DE:04
  77. 00:44:39.125 : :DE:05
  78. 00:59:27.083 : :DE:06
  79. 01:15:02.582 : :DE:07
  80. 01:31:03.875 : :DE:08
  81. 01:43:20.125 : :DE:09
  82. 01:56:39.250 : :DE:10
  83. 02:11:25.666 : :DE:11
  84. 02:22:19.290 : :DE:12
  85. 02:33:06.165 : :DE:13
RAW Paste Data