Advertisement
Guest User

K-9

a guest
Aug 17th, 2012
240
0
Never
Not a member of Pastebin yet? Sign Up, it unlocks many cool features!
text 12.15 KB | None | 0 0
  1. Полное имя : K9.Sobachja.rabota.1989.x264.HDTVRip.(AVC).0ptimus.mkv
  2. Формат : Matroska
  3. Версия формата : Version 2
  4. Размер файла : 2,47 Гбайт
  5. Продолжительность : 1 ч. 37 м.
  6. Общий поток : 3644 Кбит/сек
  7. Название фильма : К-9: Собачья работа / K-9 [1989] -=HDTVRip (AVC) by 0ptimus=-
  8. Дата кодирования : UTC 2012-08-17 08:46:13
  9. Программа кодирования : mkvmerge v5.7.0 ('The Whirlwind') built on Jul 8 2012 20:08:51
  10. Библиотека кодирования : libebml v1.2.3 + libmatroska v1.3.0
  11.  
  12. Видео
  13. Идентификатор : 1
  14. Формат : AVC
  15. Формат/Информация : Advanced Video Codec
  16. Профиль формата : High@L4.1
  17. Параметр CABAC формата : Да
  18. Параметр ReFrames формата : 10 кадров
  19. Идентификатор кодека : V_MPEG4/ISO/AVC
  20. Продолжительность : 1 ч. 37 м.
  21. Битрейт : 2684 Кбит/сек
  22. Ширина : 1024 пикселя
  23. Высота : 556 пикселей
  24. Соотношение сторон : 1,85:1
  25. Частота кадров : 25,000 кадров/сек
  26. Цветовое пространство : YUV
  27. Субдискретизация насыщенности : 4:2:0
  28. Битовая глубина : 8 бит
  29. Тип развёртки : Прогрессивная
  30. Бит/(Пиксели*Кадры) : 0.189
  31. Размер потока : 1,77 Гбайт (72%)
  32. Заголовок : by 0ptimus
  33. Библиотека кодирования : x264 core 125 r2208 d9d2288
  34. Настройки программы : cabac=1 / ref=10 / deblock=1:-2:-1 / analyse=0x3:0x113 / me=umh / subme=11 / psy=1 / psy_rd=1.00:0.20 / mixed_ref=1 / me_range=32 / chroma_me=1 / trellis=2 / 8x8dct=1 / cqm=0 / deadzone=21,11 / fast_pskip=0 / chroma_qp_offset=-3 / threads=4 / lookahead_threads=1 / sliced_threads=0 / nr=0 / decimate=0 / interlaced=0 / bluray_compat=0 / constrained_intra=0 / bframes=9 / b_pyramid=2 / b_adapt=2 / b_bias=0 / direct=3 / weightb=1 / open_gop=0 / weightp=2 / keyint=250 / keyint_min=25 / scenecut=40 / intra_refresh=0 / rc_lookahead=40 / rc=2pass / mbtree=0 / bitrate=2684 / ratetol=1.0 / qcomp=0.60 / qpmin=0 / qpmax=69 / qpstep=4 / cplxblur=20.0 / qblur=0.5 / vbv_maxrate=50000 / vbv_bufsize=50000 / nal_hrd=none / ip_ratio=1.40 / pb_ratio=1.30 / aq=1:1.00
  35. Язык : English
  36. Default : Да
  37. Forced : Да
  38.  
  39. Аудио #1
  40. Идентификатор : 2
  41. Формат : AC-3
  42. Формат/Информация : Audio Coding 3
  43. Расширение режима : CM (complete main)
  44. Параметр Endianness формата : Big
  45. Идентификатор кодека : A_AC3
  46. Продолжительность : 1 ч. 37 м.
  47. Вид битрейта : Постоянный
  48. Битрейт : 192 Кбит/сек
  49. Каналы : 2 канала
  50. Расположение каналов : Front: L R
  51. Частота : 48,0 КГц
  52. Битовая глубина : 16 бит
  53. Метод сжатия : С потерями
  54. Размер потока : 133 Мбайт (5%)
  55. Заголовок : Многоголосый [ОРТ]
  56. Язык : Russian
  57. Default : Да
  58. Forced : Да
  59.  
  60. Аудио #2
  61. Идентификатор : 3
  62. Формат : AC-3
  63. Формат/Информация : Audio Coding 3
  64. Расширение режима : CM (complete main)
  65. Параметр Endianness формата : Big
  66. Идентификатор кодека : A_AC3
  67. Продолжительность : 1 ч. 37 м.
  68. Вид битрейта : Постоянный
  69. Битрейт : 192 Кбит/сек
  70. Каналы : 2 канала
  71. Расположение каналов : Front: L R
  72. Частота : 48,0 КГц
  73. Битовая глубина : 16 бит
  74. Метод сжатия : С потерями
  75. Размер потока : 133 Мбайт (5%)
  76. Заголовок : Двухголосый
  77. Язык : Russian
  78. Default : Нет
  79. Forced : Нет
  80.  
  81. Аудио #3
  82. Идентификатор : 4
  83. Формат : AC-3
  84. Формат/Информация : Audio Coding 3
  85. Расширение режима : CM (complete main)
  86. Параметр Endianness формата : Big
  87. Идентификатор кодека : A_AC3
  88. Продолжительность : 1 ч. 37 м.
  89. Вид битрейта : Постоянный
  90. Битрейт : 192 Кбит/сек
  91. Каналы : 2 канала
  92. Расположение каналов : Front: L R
  93. Частота : 48,0 КГц
  94. Битовая глубина : 16 бит
  95. Метод сжатия : С потерями
  96. Размер потока : 133 Мбайт (5%)
  97. Заголовок : Авторский [Андрей Гаврилов]
  98. Язык : Russian
  99. Default : Нет
  100. Forced : Нет
  101.  
  102. Аудио #4
  103. Идентификатор : 5
  104. Формат : AC-3
  105. Формат/Информация : Audio Coding 3
  106. Расширение режима : CM (complete main)
  107. Параметр Endianness формата : Big
  108. Идентификатор кодека : A_AC3
  109. Продолжительность : 1 ч. 37 м.
  110. Вид битрейта : Постоянный
  111. Битрейт : 192 Кбит/сек
  112. Каналы : 2 канала
  113. Расположение каналов : Front: L R
  114. Частота : 48,0 КГц
  115. Битовая глубина : 16 бит
  116. Метод сжатия : С потерями
  117. Размер потока : 133 Мбайт (5%)
  118. Заголовок : Авторский [Василий Горчаков]
  119. Язык : Russian
  120. Default : Нет
  121. Forced : Нет
  122.  
  123. Аудио #5
  124. Идентификатор : 6
  125. Формат : AC-3
  126. Формат/Информация : Audio Coding 3
  127. Расширение режима : CM (complete main)
  128. Параметр Endianness формата : Big
  129. Идентификатор кодека : A_AC3
  130. Продолжительность : 1 ч. 37 м.
  131. Вид битрейта : Постоянный
  132. Битрейт : 192 Кбит/сек
  133. Каналы : 2 канала
  134. Расположение каналов : Front: L R
  135. Частота : 48,0 КГц
  136. Битовая глубина : 16 бит
  137. Метод сжатия : С потерями
  138. Размер потока : 133 Мбайт (5%)
  139. Язык : English
  140. Default : Нет
  141. Forced : Нет
  142.  
  143. Текст #1
  144. Идентификатор : 7
  145. Формат : UTF-8
  146. Идентификатор кодека : S_TEXT/UTF8
  147. Идентификатор кодека/Информация : UTF-8 Plain Text
  148. Заголовок : Русские (1)
  149. Язык : Russian
  150. Default : Нет
  151. Forced : Нет
  152.  
  153. Текст #2
  154. Идентификатор : 8
  155. Формат : UTF-8
  156. Идентификатор кодека : S_TEXT/UTF8
  157. Идентификатор кодека/Информация : UTF-8 Plain Text
  158. Заголовок : Русские (2)
  159. Язык : Russian
  160. Default : Нет
  161. Forced : Нет
  162.  
  163. Текст #3
  164. Идентификатор : 9
  165. Формат : UTF-8
  166. Идентификатор кодека : S_TEXT/UTF8
  167. Идентификатор кодека/Информация : UTF-8 Plain Text
  168. Язык : English
  169. Default : Нет
  170. Forced : Нет
  171.  
  172. Меню
  173. 00:00:00.000 : :Chapter 01
  174. 00:03:04.800 : :Chapter 02
  175. 00:06:37.520 : :Chapter 03
  176. 00:10:27.280 : :Chapter 04
  177. 00:14:15.040 : :Chapter 05
  178. 00:18:07.920 : :Chapter 06
  179. 00:25:47.080 : :Chapter 07
  180. 00:29:34.240 : :Chapter 08
  181. 00:34:25.360 : :Chapter 09
  182. 00:39:45.160 : :Chapter 10
  183. 00:48:36.440 : :Chapter 11
  184. 00:53:17.520 : :Chapter 12
  185. 01:00:13.400 : :Chapter 13
  186. 01:02:49.640 : :Chapter 14
  187. 01:07:12.120 : :Chapter 15
  188. 01:16:17.560 : :Chapter 16
  189. 01:25:43.840 : :Chapter 17
  190. 01:33:34.720 : :Chapter 18
  191. 01:37:09.600 : :Chapter 19
Advertisement
Add Comment
Please, Sign In to add comment
Advertisement