AlemaoPS

Untitled

Jul 29th, 2019
218
Never
Not a member of Pastebin yet? Sign Up, it unlocks many cool features!
  1. Format : Matroska
  2.  
  3. Format version : Version 2
  4.  
  5. File size : 19.6 GiB
  6.  
  7. Duration : 1 h 42 min
  8.  
  9. Overall bit rate mode : Variable
  10.  
  11. Overall bit rate : 27.4 Mb/s
  12.  
  13. Movie name : Just Cause 1995 1080p BluRay Remux H264 Multi-LRA
  14.  
  15. Encoded date : UTC 2019-07-15 17:11:24
  16.  
  17. Writing application : MakeMKV v1.14.4 win(x64-release)L1R2A3
  18.  
  19. Writing library : libmakemkv v1.14.4 (1.3.5/1.4.7) win(x64-release)
  20.  
  21. Cover : Yes
  22.  
  23. Attachments : cover.jpg
  24.  
  25.  
  26.  
  27. Video
  28.  
  29. ID : 1
  30.  
  31. ID in the original source m : 4113 (0x1011)
  32.  
  33. Format : AVC
  34.  
  35. Format/Info : Advanced Video Codec
  36.  
  37. Format profile : High@L4.1
  38.  
  39. Format settings : CABAC / 2 Ref Frames
  40.  
  41. Format settings, CABAC : Yes
  42.  
  43. Format settings, Reference : 2 frames
  44.  
  45. Codec ID : V_MPEG4/ISO/AVC
  46.  
  47. Duration : 1 h 42 min
  48.  
  49. Bit rate mode : Variable
  50.  
  51. Bit rate : 19.9 Mb/s
  52.  
  53. Width : 1 920 pixels
  54.  
  55. Height : 1 080 pixels
  56.  
  57. Display aspect ratio : 16:9
  58.  
  59. Frame rate mode : Constant
  60.  
  61. Frame rate : 23.976 (24000/1001) FPS
  62.  
  63. Color space : YUV
  64.  
  65. Chroma subsampling : 4:2:0
  66.  
  67. Bit depth : 8 bits
  68.  
  69. Scan type : Progressive
  70.  
  71. Bits/(Pixel*Frame) : 0.401
  72.  
  73. Stream size : 14.3 GiB (73%)
  74.  
  75. Title : Just Cause 1995 1080p BluRay Remux H264 Multi-LRA
  76.  
  77. Language : English
  78.  
  79. Default : No
  80.  
  81. Forced : No
  82.  
  83. Original source medium : Blu-ray
  84.  
  85.  
  86.  
  87. Audio #1
  88.  
  89. ID : 2
  90.  
  91. ID in the original source m : 4352 (0x1100)
  92.  
  93. Format : DTS XLL
  94.  
  95. Format/Info : Digital Theater Systems
  96.  
  97. Commercial name : DTS-HD Master Audio
  98.  
  99. Codec ID : A_DTS
  100.  
  101. Duration : 1 h 42 min
  102.  
  103. Bit rate mode : Variable
  104.  
  105. Bit rate : 4 056 kb/s
  106.  
  107. Channel(s) : 6 channels
  108.  
  109. Channel layout : C L R Ls Rs LFE
  110.  
  111. Sampling rate : 48.0 kHz
  112.  
  113. Frame rate : 93.750 FPS (512 SPF)
  114.  
  115. Bit depth : 24 bits
  116.  
  117. Compression mode : Lossless
  118.  
  119. Stream size : 2.90 GiB (15%)
  120.  
  121. Title : Surround 5.1
  122.  
  123. Language : English
  124.  
  125. Default : Yes
  126.  
  127. Forced : No
  128.  
  129. Original source medium : Blu-ray
  130.  
  131.  
  132.  
  133. Audio #2
  134.  
  135. ID : 3
  136.  
  137. ID in the original source m : 4352 (0x1100)
  138.  
  139. Format : DTS
  140.  
  141. Format/Info : Digital Theater Systems
  142.  
  143. Codec ID : A_DTS
  144.  
  145. Duration : 1 h 42 min
  146.  
  147. Bit rate mode : Constant
  148.  
  149. Bit rate : 1 509 kb/s
  150.  
  151. Channel(s) : 6 channels
  152.  
  153. Channel layout : C L R Ls Rs LFE
  154.  
  155. Sampling rate : 48.0 kHz
  156.  
  157. Frame rate : 93.750 FPS (512 SPF)
  158.  
  159. Bit depth : 24 bits
  160.  
  161. Compression mode : Lossy
  162.  
  163. Stream size : 1.08 GiB (5%)
  164.  
  165. Title : Surround 5.1
  166.  
  167. Language : English
  168.  
  169. Default : No
  170.  
  171. Forced : No
  172.  
  173. Original source medium : Blu-ray
  174.  
  175.  
  176.  
  177. Audio #3
  178.  
  179. ID : 4
  180.  
  181. ID in the original source m : 4353 (0x1101)
  182.  
  183. Format : AC-3
  184.  
  185. Format/Info : Audio Coding 3
  186.  
  187. Commercial name : Dolby Digital
  188.  
  189. Codec ID : A_AC3
  190.  
  191. Duration : 1 h 42 min
  192.  
  193. Bit rate mode : Constant
  194.  
  195. Bit rate : 192 kb/s
  196.  
  197. Channel(s) : 2 channels
  198.  
  199. Channel layout : L R
  200.  
  201. Sampling rate : 48.0 kHz
  202.  
  203. Frame rate : 31.250 FPS (1536 SPF)
  204.  
  205. Bit depth : 16 bits
  206.  
  207. Compression mode : Lossy
  208.  
  209. Stream size : 141 MiB (1%)
  210.  
  211. Title : Stereo
  212.  
  213. Language : French
  214.  
  215. Service kind : Complete Main
  216.  
  217. Default : No
  218.  
  219. Forced : No
  220.  
  221. Original source medium : Blu-ray
  222.  
  223.  
  224.  
  225. Audio #4
  226.  
  227. ID : 5
  228.  
  229. ID in the original source m : 4354 (0x1102)
  230.  
  231. Format : AC-3
  232.  
  233. Format/Info : Audio Coding 3
  234.  
  235. Commercial name : Dolby Digital
  236.  
  237. Codec ID : A_AC3
  238.  
  239. Duration : 1 h 42 min
  240.  
  241. Bit rate mode : Constant
  242.  
  243. Bit rate : 640 kb/s
  244.  
  245. Channel(s) : 6 channels
  246.  
  247. Channel layout : L R C LFE Ls Rs
  248.  
  249. Sampling rate : 48.0 kHz
  250.  
  251. Frame rate : 31.250 FPS (1536 SPF)
  252.  
  253. Bit depth : 16 bits
  254.  
  255. Compression mode : Lossy
  256.  
  257. Stream size : 469 MiB (2%)
  258.  
  259. Title : Surround 5.1
  260.  
  261. Language : German
  262.  
  263. Service kind : Complete Main
  264.  
  265. Default : No
  266.  
  267. Forced : No
  268.  
  269. Original source medium : Blu-ray
  270.  
  271.  
  272.  
  273. Audio #5
  274.  
  275. ID : 6
  276.  
  277. ID in the original source m : 4355 (0x1103)
  278.  
  279. Format : AC-3
  280.  
  281. Format/Info : Audio Coding 3
  282.  
  283. Commercial name : Dolby Digital
  284.  
  285. Codec ID : A_AC3
  286.  
  287. Duration : 1 h 42 min
  288.  
  289. Bit rate mode : Constant
  290.  
  291. Bit rate : 640 kb/s
  292.  
  293. Channel(s) : 6 channels
  294.  
  295. Channel layout : L R C LFE Ls Rs
  296.  
  297. Sampling rate : 48.0 kHz
  298.  
  299. Frame rate : 31.250 FPS (1536 SPF)
  300.  
  301. Bit depth : 16 bits
  302.  
  303. Compression mode : Lossy
  304.  
  305. Stream size : 469 MiB (2%)
  306.  
  307. Title : Surround 5.1
  308.  
  309. Language : Spanish
  310.  
  311. Service kind : Complete Main
  312.  
  313. Default : No
  314.  
  315. Forced : No
  316.  
  317. Original source medium : Blu-ray
  318.  
  319.  
  320.  
  321. Audio #6
  322.  
  323. ID : 7
  324.  
  325. ID in the original source m : 4356 (0x1104)
  326.  
  327. Format : AC-3
  328.  
  329. Format/Info : Audio Coding 3
  330.  
  331. Commercial name : Dolby Digital
  332.  
  333. Codec ID : A_AC3
  334.  
  335. Duration : 1 h 42 min
  336.  
  337. Bit rate mode : Constant
  338.  
  339. Bit rate : 192 kb/s
  340.  
  341. Channel(s) : 1 channel
  342.  
  343. Channel layout : C
  344.  
  345. Sampling rate : 48.0 kHz
  346.  
  347. Frame rate : 31.250 FPS (1536 SPF)
  348.  
  349. Bit depth : 16 bits
  350.  
  351. Compression mode : Lossy
  352.  
  353. Stream size : 141 MiB (1%)
  354.  
  355. Title : Mono
  356.  
  357. Language : Portuguese
  358.  
  359. Service kind : Complete Main
  360.  
  361. Default : Yes
  362.  
  363. Forced : Yes
  364.  
  365. Original source medium : Blu-ray
  366.  
  367.  
  368.  
  369. Text #1
  370.  
  371. ID : 8
  372.  
  373. ID in the original source m : 4609 (0x1201)
  374.  
  375. Format : PGS
  376.  
  377. Codec ID : S_HDMV/PGS
  378.  
  379. Codec ID/Info : Picture based subtitle format used on BDs/HD-DVDs
  380.  
  381. Duration : 1 h 41 min
  382.  
  383. Bit rate : 35.5 kb/s
  384.  
  385. Count of elements : 2718
  386.  
  387. Stream size : 25.8 MiB (0%)
  388.  
  389. Language : English
  390.  
  391. Default : No
  392.  
  393. Forced : No
  394.  
  395. Original source medium : Blu-ray
  396.  
  397.  
  398.  
  399. Text #2
  400.  
  401. ID : 10
  402.  
  403. ID in the original source m : 4610 (0x1202)
  404.  
  405. Format : PGS
  406.  
  407. Codec ID : S_HDMV/PGS
  408.  
  409. Codec ID/Info : Picture based subtitle format used on BDs/HD-DVDs
  410.  
  411. Duration : 1 h 41 min
  412.  
  413. Bit rate : 22.9 kb/s
  414.  
  415. Count of elements : 2170
  416.  
  417. Stream size : 16.6 MiB (0%)
  418.  
  419. Language : French
  420.  
  421. Default : No
  422.  
  423. Forced : No
  424.  
  425. Original source medium : Blu-ray
  426.  
  427.  
  428.  
  429. Text #3
  430.  
  431. ID : 12
  432.  
  433. ID in the original source m : 4611 (0x1203)
  434.  
  435. Format : PGS
  436.  
  437. Codec ID : S_HDMV/PGS
  438.  
  439. Codec ID/Info : Picture based subtitle format used on BDs/HD-DVDs
  440.  
  441. Duration : 1 h 41 min
  442.  
  443. Bit rate : 30.3 kb/s
  444.  
  445. Count of elements : 2626
  446.  
  447. Stream size : 22.1 MiB (0%)
  448.  
  449. Language : German
  450.  
  451. Default : No
  452.  
  453. Forced : No
  454.  
  455. Original source medium : Blu-ray
  456.  
  457.  
  458.  
  459. Text #4
  460.  
  461. ID : 14
  462.  
  463. ID in the original source m : 4612 (0x1204)
  464.  
  465. Format : PGS
  466.  
  467. Codec ID : S_HDMV/PGS
  468.  
  469. Codec ID/Info : Picture based subtitle format used on BDs/HD-DVDs
  470.  
  471. Duration : 1 h 41 min
  472.  
  473. Bit rate : 29.2 kb/s
  474.  
  475. Count of elements : 2544
  476.  
  477. Stream size : 21.2 MiB (0%)
  478.  
  479. Language : Spanish
  480.  
  481. Default : No
  482.  
  483. Forced : No
  484.  
  485. Original source medium : Blu-ray
  486.  
  487.  
  488.  
  489. Text #5
  490.  
  491. ID : 16
  492.  
  493. ID in the original source m : 4613 (0x1205)
  494.  
  495. Format : PGS
  496.  
  497. Codec ID : S_HDMV/PGS
  498.  
  499. Codec ID/Info : Picture based subtitle format used on BDs/HD-DVDs
  500.  
  501. Duration : 1 h 41 min
  502.  
  503. Bit rate : 25.9 kb/s
  504.  
  505. Count of elements : 2474
  506.  
  507. Stream size : 18.8 MiB (0%)
  508.  
  509. Language : Spanish
  510.  
  511. Default : No
  512.  
  513. Forced : No
  514.  
  515. Original source medium : Blu-ray
  516.  
  517.  
  518.  
  519. Text #6
  520.  
  521. ID : 18
  522.  
  523. ID in the original source m : 4614 (0x1206)
  524.  
  525. Format : PGS
  526.  
  527. Codec ID : S_HDMV/PGS
  528.  
  529. Codec ID/Info : Picture based subtitle format used on BDs/HD-DVDs
  530.  
  531. Duration : 1 h 41 min
  532.  
  533. Bit rate : 32.3 kb/s
  534.  
  535. Count of elements : 2500
  536.  
  537. Stream size : 23.4 MiB (0%)
  538.  
  539. Language : Portuguese
  540.  
  541. Default : No
  542.  
  543. Forced : No
  544.  
  545. Original source medium : Blu-ray
  546.  
  547.  
  548.  
  549. Text #7
  550.  
  551. ID : 20
  552.  
  553. ID in the original source m : 4615 (0x1207)
  554.  
  555. Format : PGS
  556.  
  557. Codec ID : S_HDMV/PGS
  558.  
  559. Codec ID/Info : Picture based subtitle format used on BDs/HD-DVDs
  560.  
  561. Duration : 1 h 41 min
  562.  
  563. Bit rate : 23.1 kb/s
  564.  
  565. Count of elements : 1626
  566.  
  567. Stream size : 16.8 MiB (0%)
  568.  
  569. Language : Danish
  570.  
  571. Default : No
  572.  
  573. Forced : No
  574.  
  575. Original source medium : Blu-ray
  576.  
  577.  
  578.  
  579. Text #8
  580.  
  581. ID : 22
  582.  
  583. ID in the original source m : 4616 (0x1208)
  584.  
  585. Format : PGS
  586.  
  587. Codec ID : S_HDMV/PGS
  588.  
  589. Codec ID/Info : Picture based subtitle format used on BDs/HD-DVDs
  590.  
  591. Duration : 1 h 41 min
  592.  
  593. Bit rate : 23.5 kb/s
  594.  
  595. Count of elements : 1788
  596.  
  597. Stream size : 17.0 MiB (0%)
  598.  
  599. Language : Finnish
  600.  
  601. Default : No
  602.  
  603. Forced : No
  604.  
  605. Original source medium : Blu-ray
  606.  
  607.  
  608.  
  609. Text #9
  610.  
  611. ID : 24
  612.  
  613. ID in the original source m : 4617 (0x1209)
  614.  
  615. Format : PGS
  616.  
  617. Codec ID : S_HDMV/PGS
  618.  
  619. Codec ID/Info : Picture based subtitle format used on BDs/HD-DVDs
  620.  
  621. Duration : 1 h 41 min
  622.  
  623. Bit rate : 24.8 kb/s
  624.  
  625. Count of elements : 2280
  626.  
  627. Stream size : 18.0 MiB (0%)
  628.  
  629. Language : Norwegian
  630.  
  631. Default : No
  632.  
  633. Forced : No
  634.  
  635. Original source medium : Blu-ray
  636.  
  637.  
  638.  
  639. Text #10
  640.  
  641. ID : 26
  642.  
  643. ID in the original source m : 4618 (0x120A)
  644.  
  645. Format : PGS
  646.  
  647. Codec ID : S_HDMV/PGS
  648.  
  649. Codec ID/Info : Picture based subtitle format used on BDs/HD-DVDs
  650.  
  651. Duration : 1 h 41 min
  652.  
  653. Bit rate : 25.0 kb/s
  654.  
  655. Count of elements : 1588
  656.  
  657. Stream size : 18.1 MiB (0%)
  658.  
  659. Language : Swedish
  660.  
  661. Default : No
  662.  
  663. Forced : No
  664.  
  665. Original source medium : Blu-ray
RAW Paste Data

Adblocker detected! Please consider disabling it...

We've detected AdBlock Plus or some other adblocking software preventing Pastebin.com from fully loading.

We don't have any obnoxious sound, or popup ads, we actively block these annoying types of ads!

Please add Pastebin.com to your ad blocker whitelist or disable your adblocking software.

×