SHARE
TWEET

The Protector: Season 1 1080p WEB-DL

dirtyharrys May 7th, 2019 96 Never
Not a member of Pastebin yet? Sign Up, it unlocks many cool features!
  1. General
  2. Unique ID                   : 245594856573224750574574204931258962994 (0xB8C3D94DFBD10644A44F13E56EEFD432)
  3. Complete name               : D:\The.Protector.S01\TPS01E01.mkv
  4. Format                      : Matroska
  5. Format version              : Version 4
  6. File size                   : 1.60 GiB
  7. Duration                    : 45 min 32 s
  8. Overall bit rate mode       : Variable
  9. Overall bit rate            : 5 015 kb/s
  10. Movie name                  : The Protector S01E01 / The Protector: Season One
  11. Description                 : Episode 01: "Episode 1"
  12. Encoded date                : UTC 2018-12-28 06:13:39
  13. Writing application         : mkvmerge v12.0.0 ('Trust / Lust') 32bit
  14. Writing library             : libebml v1.3.4 + libmatroska v1.4.5
  15. Copyright                   : Movies HDs 2018
  16. ARTIST                      : HarshLearner
  17.  
  18. Video
  19. ID                          : 1
  20. Format                      : AVC
  21. Format/Info                 : Advanced Video Codec
  22. Format profile              : Main@L4
  23. Format settings             : CABAC / 3 Ref Frames
  24. Format settings, CABAC      : Yes
  25. Format settings, ReFrames   : 3 frames
  26. Codec ID                    : V_MPEG4/ISO/AVC
  27. Duration                    : 45 min 32 s
  28. Bit rate mode               : Variable
  29. Bit rate                    : 4 020 kb/s
  30. Maximum bit rate            : 6 030 kb/s
  31. Width                       : 1 920 pixels
  32. Height                      : 1 080 pixels
  33. Display aspect ratio        : 16:9
  34. Frame rate mode             : Constant
  35. Frame rate                  : 24.000 FPS
  36. Color space                 : YUV
  37. Chroma subsampling          : 4:2:0
  38. Bit depth                   : 8 bits
  39. Scan type                   : Progressive
  40. Bits/(Pixel*Frame)          : 0.081
  41. Stream size                 : 1.27 GiB (80%)
  42. Title                       : The Protector S01E01
  43. Writing library             : x264 core 148 r2715 7e75228
  44. Encoding settings           : cabac=1 / ref=3 / deblock=1:0:0 / analyse=0x1:0x111 / me=umh / subme=10 / psy=1 / psy_rd=1.00:0.00 / mixed_ref=1 / me_range=24 / chroma_me=1 / trellis=2 / 8x8dct=0 / cqm=0 / deadzone=21,11 / fast_pskip=1 / chroma_qp_offset=-2 / threads=8 / lookahead_threads=1 / sliced_threads=0 / nr=0 / decimate=1 / interlaced=0 / bluray_compat=0 / stitchable=1 / constrained_intra=0 / bframes=2 / b_pyramid=0 / b_adapt=2 / b_bias=0 / direct=3 / weightb=1 / open_gop=0 / weightp=2 / keyint=48 / keyint_min=25 / scenecut=0 / intra_refresh=0 / rc_lookahead=48 / rc=2pass / mbtree=1 / bitrate=4020 / ratetol=1.0 / qcomp=0.50 / qpmin=6 / qpmax=51 / qpstep=4 / cplxblur=20.0 / qblur=0.5 / vbv_maxrate=6030 / vbv_bufsize=8040 / nal_hrd=vbr / filler=0 / ip_ratio=1.40 / aq=1:1.00
  45. Default                     : Yes
  46. Forced                      : No
  47.  
  48. Audio #1
  49. ID                          : 2
  50. Format                      : E-AC-3
  51. Format/Info                 : Enhanced AC-3
  52. Commercial name             : Dolby Digital Plus
  53. Codec ID                    : A_EAC3
  54. Duration                    : 45 min 32 s
  55. Bit rate mode               : Constant
  56. Bit rate                    : 640 kb/s
  57. Channel(s)                  : 6 channels
  58. Channel layout              : L R C LFE Ls Rs
  59. Sampling rate               : 48.0 kHz
  60. Frame rate                  : 31.250 FPS (1536 SPF)
  61. Compression mode            : Lossy
  62. Stream size                 : 208 MiB (13%)
  63. Language                    : Turkish
  64. Service kind                : Complete Main
  65. Default                     : No
  66. Forced                      : No
  67.  
  68. Audio #2
  69. ID                          : 3
  70. Format                      : AC-3
  71. Format/Info                 : Audio Coding 3
  72. Commercial name             : Dolby Digital
  73. Codec ID                    : A_AC3
  74. Duration                    : 45 min 32 s
  75. Bit rate mode               : Constant
  76. Bit rate                    : 384 kb/s
  77. Channel(s)                  : 6 channels
  78. Channel layout              : L R C LFE Ls Rs
  79. Sampling rate               : 48.0 kHz
  80. Frame rate                  : 31.250 FPS (1536 SPF)
  81. Bit depth                   : 16 bits
  82. Compression mode            : Lossy
  83. Stream size                 : 125 MiB (8%)
  84. Language                    : Spanish
  85. Service kind                : Complete Main
  86. Default                     : Yes
  87. Forced                      : Yes
  88.  
  89. Text #1
  90. ID                          : 4
  91. Format                      : UTF-8
  92. Codec ID                    : S_TEXT/UTF8
  93. Codec ID/Info               : UTF-8 Plain Text
  94. Duration                    : 42 min 26 s
  95. Bit rate                    : 1 b/s
  96. Count of elements           : 17
  97. Stream size                 : 402 Bytes (0%)
  98. Language                    : English
  99. Default                     : No
  100. Forced                      : No
  101.  
  102. Text #2
  103. ID                          : 5
  104. Format                      : UTF-8
  105. Codec ID                    : S_TEXT/UTF8
  106. Codec ID/Info               : UTF-8 Plain Text
  107. Duration                    : 44 min 52 s
  108. Bit rate                    : 60 b/s
  109. Count of elements           : 653
  110. Stream size                 : 19.9 KiB (0%)
  111. Title                       : SDH
  112. Language                    : English
  113. Default                     : No
  114. Forced                      : No
  115.  
  116. Text #3
  117. ID                          : 6
  118. Format                      : UTF-8
  119. Codec ID                    : S_TEXT/UTF8
  120. Codec ID/Info               : UTF-8 Plain Text
  121. Duration                    : 44 min 52 s
  122. Bit rate                    : 51 b/s
  123. Count of elements           : 587
  124. Stream size                 : 16.9 KiB (0%)
  125. Language                    : Spanish
  126. Default                     : Yes
  127. Forced                      : Yes
  128.  
  129. Text #4
  130. ID                          : 7
  131. Format                      : UTF-8
  132. Codec ID                    : S_TEXT/UTF8
  133. Codec ID/Info               : UTF-8 Plain Text
  134. Duration                    : 44 min 52 s
  135. Bit rate                    : 47 b/s
  136. Count of elements           : 564
  137. Stream size                 : 15.5 KiB (0%)
  138. Language                    : French
  139. Default                     : No
  140. Forced                      : No
  141.  
  142. Text #5
  143. ID                          : 8
  144. Format                      : UTF-8
  145. Codec ID                    : S_TEXT/UTF8
  146. Codec ID/Info               : UTF-8 Plain Text
  147. Duration                    : 44 min 52 s
  148. Bit rate                    : 46 b/s
  149. Count of elements           : 583
  150. Stream size                 : 15.3 KiB (0%)
  151. Language                    : Portuguese
  152. Default                     : No
  153. Forced                      : No
  154.  
  155. Text #6
  156. ID                          : 9
  157. Format                      : UTF-8
  158. Codec ID                    : S_TEXT/UTF8
  159. Codec ID/Info               : UTF-8 Plain Text
  160. Duration                    : 44 min 52 s
  161. Bit rate                    : 1 b/s
  162. Count of elements           : 21
  163. Stream size                 : 471 Bytes (0%)
  164. Language                    : Spanish
  165. Default                     : No
  166. Forced                      : No
RAW Paste Data
We use cookies for various purposes including analytics. By continuing to use Pastebin, you agree to our use of cookies as described in the Cookies Policy. OK, I Understand
 
Top