yushiro

p.Desaparecida (Spoorloos) (1988)[BDRip 1080p].yus

Jun 8th, 2020
50
Never
Not a member of Pastebin yet? Sign Up, it unlocks many cool features!
  1. General
  2. Unique ID : 17810937659466180184174315198141626189 (0xD6643067A6506222FB25C712A8EF74D)
  3. Complete name : G:\Desaparecida (Spoorloos) (1988)[BDRip 1080p]Yushiro.mkv
  4. Format : Matroska
  5. Format version : Version 4
  6. File size : 8.91 GiB
  7. Duration : 1 h 46 min
  8. Overall bit rate : 12.0 Mb/s
  9. Movie name : Desaparecida (Spoorloos) (1988)[BDRip 1080p]Yushiro
  10. Encoded date : UTC 2020-06-07 01:58:35
  11. Writing application : mkvmerge v44.0.0 ('Domino') 64-bit
  12. Writing library : libebml v1.3.10 + libmatroska v1.5.2
  13.  
  14. Video
  15. ID : 1
  16. Format : AVC
  17. Format/Info : Advanced Video Codec
  18. Format profile : High@L4.1
  19. Format settings : CABAC / 4 Ref Frames
  20. Format settings, CABAC : Yes
  21. Format settings, Reference : 4 frames
  22. Codec ID : V_MPEG4/ISO/AVC
  23. Duration : 1 h 46 min
  24. Bit rate : 11.1 Mb/s
  25. Width : 1 808 pixels
  26. Height : 1 080 pixels
  27. Display aspect ratio : 5:3
  28. Frame rate mode : Constant
  29. Frame rate : 23.976 (24000/1001) FPS
  30. Color space : YUV
  31. Chroma subsampling : 4:2:0
  32. Bit depth : 8 bits
  33. Scan type : Progressive
  34. Bits/(Pixel*Frame) : 0.237
  35. Stream size : 8.24 GiB (93%)
  36. Title : Desaparecida (Spoorloos) (1988)[BDRip 1080p]Yushiro
  37. Writing library : x264 core 142 r2479kMod dd79a61
  38. Encoding settings : cabac=1 / ref=4 / deblock=1:-3:-3 / analyse=0x3:0x113 / me=umh / subme=8 / psy=1 / fade_compensate=0.00 / psy_rd=1.10:0.00 / mixed_ref=1 / me_range=16 / chroma_me=1 / trellis=1 / 8x8dct=1 / cqm=0 / deadzone=21,11 / fast_pskip=1 / chroma_qp_offset=-2 / threads=1 / lookahead_threads=1 / sliced_threads=0 / nr=0 / decimate=1 / interlaced=0 / bluray_compat=0 / constrained_intra=0 / fgo=0 / bframes=3 / b_pyramid=2 / b_adapt=2 / b_bias=0 / direct=3 / weightb=1 / open_gop=0 / weightp=2 / keyint=240 / keyint_min=24 / scenecut=40 / intra_refresh=0 / rc_lookahead=50 / rc=2pass / mbtree=1 / bitrate=11090 / ratetol=1.0 / qcomp=0.60 / qpmin=0 / qpmax=69 / qpstep=4 / cplxblur=20.0 / qblur=0.5 / ip_ratio=1.40 / aq=1:0.70
  39. Language : Spanish
  40. Default : Yes
  41. Forced : No
  42.  
  43. Audio #1
  44. ID : 2
  45. Format : AC-3
  46. Format/Info : Audio Coding 3
  47. Commercial name : Dolby Digital
  48. Codec ID : A_AC3
  49. Duration : 1 h 46 min
  50. Bit rate mode : Constant
  51. Bit rate : 448 kb/s
  52. Channel(s) : 2 channels
  53. Channel layout : L R
  54. Sampling rate : 48.0 kHz
  55. Frame rate : 31.250 FPS (1536 SPF)
  56. Compression mode : Lossy
  57. Stream size : 341 MiB (4%)
  58. Title : Castellano AC3 Stéreo
  59. Language : Spanish
  60. Service kind : Complete Main
  61. Default : Yes
  62. Forced : No
  63.  
  64. Audio #2
  65. ID : 3
  66. Format : AC-3
  67. Format/Info : Audio Coding 3
  68. Commercial name : Dolby Digital
  69. Codec ID : A_AC3
  70. Duration : 1 h 46 min
  71. Bit rate mode : Constant
  72. Bit rate : 448 kb/s
  73. Channel(s) : 1 channel
  74. Channel layout : C
  75. Sampling rate : 48.0 kHz
  76. Frame rate : 31.250 FPS (1536 SPF)
  77. Compression mode : Lossy
  78. Stream size : 341 MiB (4%)
  79. Title : Francés AC3 Mono
  80. Language : French
  81. Service kind : Complete Main
  82. Default : No
  83. Forced : No
  84.  
  85. Text #1
  86. ID : 4
  87. Format : UTF-8
  88. Codec ID : S_TEXT/UTF8
  89. Codec ID/Info : UTF-8 Plain Text
  90. Duration : 1 h 44 min
  91. Bit rate : 36 b/s
  92. Count of elements : 823
  93. Stream size : 28.0 KiB (0%)
  94. Title : Castellano
  95. Language : Spanish
  96. Default : Yes
  97. Forced : No
  98.  
  99. Text #2
  100. ID : 5
  101. Format : UTF-8
  102. Codec ID : S_TEXT/UTF8
  103. Codec ID/Info : UTF-8 Plain Text
  104. Duration : 1 h 43 min
  105. Bit rate : 33 b/s
  106. Count of elements : 833
  107. Stream size : 25.5 KiB (0%)
  108. Title : Inglés
  109. Language : English
  110. Default : No
  111. Forced : No
  112.  
  113. Menu
  114. 00:00:00.000 : en:00:00:00.000
  115. 00:03:43.682 : en:00:03:43.682
  116. 00:08:28.925 : en:00:08:28.925
  117. 00:12:43.429 : en:00:12:43.429
  118. 00:16:41.167 : en:00:16:41.167
  119. 00:19:37.343 : en:00:19:37.343
  120. 00:24:31.845 : en:00:24:31.845
  121. 00:28:07.978 : en:00:28:07.978
  122. 00:34:29.234 : en:00:34:29.234
  123. 00:40:13.953 : en:00:40:13.953
  124. 00:48:08.094 : en:00:48:08.094
  125. 00:51:42.516 : en:00:51:42.516
  126. 00:54:47.701 : en:00:54:47.701
  127. 01:02:40.548 : en:01:02:40.548
  128. 01:05:15.787 : en:01:05:15.787
  129. 01:08:47.582 : en:01:08:47.582
  130. 01:13:27.903 : en:01:13:27.903
  131. 01:18:44.553 : en:01:18:44.553
  132. 01:21:47.528 : en:01:21:47.528
  133. 01:26:32.604 : en:01:26:32.604
  134. 01:32:05.562 : en:01:32:05.562
  135. 01:37:25.006 : en:01:37:25.006
  136. 01:40:06.667 : en:01:40:06.667
RAW Paste Data