Advertisement
Henry_Kr

BTDTCTG-2023

Mar 30th, 2023
166
0
Never
Not a member of Pastebin yet? Sign Up, it unlocks many cool features!
text 3.93 KB | None | 0 0
  1. Video
  2. ID : 1
  3. Format : AVC
  4. Format/Info : Advanced Video Codec
  5. Format profile : High@L4.1
  6. Format settings : CABAC / 4 Ref Frames
  7. Format settings, CABAC : Yes
  8. Format settings, Reference : 4 frames
  9. Codec ID : V_MPEG4/ISO/AVC
  10. Duration : 1 h 30 min
  11. Bit rate : 2 500 kb/s
  12. Width : 1 920 pixels
  13. Height : 1 080 pixels
  14. Display aspect ratio : 16:9
  15. Frame rate mode : Constant
  16. Frame rate : 23.976 (24000/1001) FPS
  17. Original frame rate : 23.976 (23976/1000) FPS
  18. Color space : YUV
  19. Chroma subsampling : 4:2:0
  20. Bit depth : 8 bits
  21. Scan type : Progressive
  22. Bits/(Pixel*Frame) : 0.050
  23. Stream size : 1.57 GiB (66%)
  24. Title : Batman.The.Doom.That.Came.to.Gotham.2023.1080p.BluRay.[CartoonNOW]
  25. Writing library : x264 core 152 rarbg
  26. Encoding settings : cabac=1 / ref=4 / deblock=1:-1:-1 / analyse=0x3:0x113 / me=umh / subme=9 / psy=1 / psy_rd=1.00:0.15 / mixed_ref=1 / me_range=24 / chroma_me=1 / trellis=2 / 8x8dct=1 / cqm=0 / deadzone=21,11 / fast_pskip=1 / chroma_qp_offset=-3 / threads=16 / lookahead_threads=4 / sliced_threads=0 / nr=0 / decimate=1 / interlaced=0 / bluray_compat=0 / constrained_intra=0 / bframes=3 / b_pyramid=2 / b_adapt=2 / b_bias=0 / direct=3 / weightb=1 / open_gop=0 / weightp=2 / keyint=250 / keyint_min=25 / scenecut=40 / intra_refresh=0 / rc_lookahead=50 / rc=2pass / mbtree=1 / bitrate=2500 / ratetol=1.0 / qcomp=0.60 / qpmin=0 / qpmax=69 / qpstep=4 / cplxblur=20.0 / qblur=0.5 / vbv_maxrate=31250 / vbv_bufsize=31250 / nal_hrd=none / filler=0 / ip_ratio=1.40 / aq=3:1.00
  27. Language : English
  28. Default : Yes
  29. Forced : No
  30.  
  31. Audio #1
  32. ID : 2
  33. Format : AC-3
  34. Format/Info : Audio Coding 3
  35. Commercial name : Dolby Digital
  36. Codec ID : A_AC3
  37. Duration : 1 h 30 min
  38. Bit rate mode : Constant
  39. Bit rate : 640 kb/s
  40. Channel(s) : 6 channels
  41. Channel layout : L R C LFE Ls Rs
  42. Sampling rate : 48.0 kHz
  43. Frame rate : 31.250 FPS (1536 SPF)
  44. Compression mode : Lossy
  45. Stream size : 412 MiB (17%)
  46. Title : AC3 5.1
  47. Language : Portuguese
  48. Service kind : Complete Main
  49. Default : Yes
  50. Forced : No
  51.  
  52. Audio #2
  53. ID : 3
  54. Format : AC-3
  55. Format/Info : Audio Coding 3
  56. Commercial name : Dolby Digital
  57. Codec ID : A_AC3
  58. Duration : 1 h 30 min
  59. Bit rate mode : Constant
  60. Bit rate : 640 kb/s
  61. Channel(s) : 6 channels
  62. Channel layout : L R C LFE Ls Rs
  63. Sampling rate : 48.0 kHz
  64. Frame rate : 31.250 FPS (1536 SPF)
  65. Compression mode : Lossy
  66. Stream size : 412 MiB (17%)
  67. Title : AC3 5.1
  68. Language : English
  69. Service kind : Complete Main
  70. Default : No
  71. Forced : No
  72.  
  73. Text
  74. ID : 4
  75. Format : UTF-8
  76. Codec ID : S_TEXT/UTF8
  77. Codec ID/Info : UTF-8 Plain Text
  78. Duration : 1 h 26 min
  79. Bit rate : 54 b/s
  80. Count of elements : 1061
  81. Stream size : 34.7 KiB (0%)
  82. Title : Completa
  83. Language : Portuguese
  84. Default : No
  85. Forced : No
Advertisement
Add Comment
Please, Sign In to add comment
Advertisement