Henry_Kr

JLA-S01

Sep 13th, 2020
271
Never
Not a member of Pastebin yet? Sign Up, it unlocks many cool features!
  1. Video
  2. ID : 1
  3. Format : AVC
  4. Format/Info : Advanced Video Codec
  5. Format profile : High@L4
  6. Format settings : CABAC / 3 Ref Frames
  7. Format settings, CABAC : Yes
  8. Format settings, Reference : 3 frames
  9. Muxing mode : Header stripping
  10. Codec ID : V_MPEG4/ISO/AVC
  11. Duration : 11 min 42 s
  12. Bit rate mode : Variable
  13. Bit rate : 1 712 kb/s
  14. Nominal bit rate : 2 048 kb/s
  15. Maximum bit rate : 25.0 Mb/s
  16. Width : 1 920 pixels
  17. Height : 1 080 pixels
  18. Display aspect ratio : 16:9
  19. Frame rate mode : Constant
  20. Frame rate : 25.000 FPS
  21. Color space : YUV
  22. Chroma subsampling : 4:2:0
  23. Bit depth : 8 bits
  24. Scan type : Progressive
  25. Bits/(Pixel*Frame) : 0.033
  26. Stream size : 143 MiB (85%)
  27. Title : Justice.League.Action.S01E01.Rocha.Antiga.1080p.WEB-DL.[CartoonNOW]
  28. Writing library : x264 core 148 r2705 3f5ed56
  29. Language : English
  30. Default : Yes
  31. Forced : No
  32.  
  33. Audio #1
  34. ID : 2
  35. Format : MPEG Audio
  36. Format version : Version 1
  37. Format profile : Layer 3
  38. Format settings : Joint stereo / MS Stereo
  39. Muxing mode : Header stripping
  40. Codec ID : A_MPEG/L3
  41. Codec ID/Hint : MP3
  42. Duration : 11 min 41 s
  43. Bit rate mode : Variable
  44. Bit rate : 128 kb/s
  45. Channel(s) : 2 channels
  46. Sampling rate : 44.1 kHz
  47. Frame rate : 38.281 FPS (1152 SPF)
  48. Compression mode : Lossy
  49. Stream size : 10.7 MiB (6%)
  50. Title : MP3 - 2.0
  51. Language : Portuguese
  52. Default : Yes
  53. Forced : No
  54.  
  55. Audio #2
  56. ID : 3
  57. Format : MPEG Audio
  58. Format version : Version 1
  59. Format profile : Layer 3
  60. Format settings : Joint stereo / MS Stereo
  61. Muxing mode : Header stripping
  62. Codec ID : A_MPEG/L3
  63. Codec ID/Hint : MP3
  64. Duration : 11 min 42 s
  65. Bit rate mode : Variable
  66. Bit rate : 128 kb/s
  67. Channel(s) : 2 channels
  68. Sampling rate : 44.1 kHz
  69. Frame rate : 38.281 FPS (1152 SPF)
  70. Compression mode : Lossy
  71. Stream size : 10.7 MiB (6%)
  72. Title : MP3 - 2.0
  73. Language : English
  74. Default : No
  75. Forced : No
  76.  
  77. Text
  78. ID : 4
  79. Format : UTF-8
  80. Codec ID : S_TEXT/UTF8
  81. Codec ID/Info : UTF-8 Plain Text
  82. Title : SRT
  83. Language : Portuguese
  84. Default : No
  85. Forced : No
RAW Paste Data