SHARE
TWEET

Untitled

a guest Nov 16th, 2019 91 Never
Not a member of Pastebin yet? Sign Up, it unlocks many cool features!
  1.  
  2. General
  3. Unique ID                                : 91164661849146382062909182034114702132 (0x4495ACDABA4E89768E0FF1756A8AEB34)
  4. Complete name                            : Mary.2019.1080p.BluRay.REMUX.AVC.DTS-HD.MA.5.1-EPSiLON.mkv
  5. Format                                   : Matroska
  6. Format version                           : Version 4
  7. File size                                : 14.4 GiB
  8. Duration                                 : 1 h 24 min
  9. Overall bit rate mode                    : Variable
  10. Overall bit rate                         : 24.5 Mb/s
  11. Movie name                               : Mary (2019)
  12. Encoded date                             : UTC 2019-11-16 02:39:34
  13. Writing application                      : mkvmerge v34.0.0 ('Sight and Seen') 64-bit
  14. Writing library                          : libebml v1.3.9 + libmatroska v1.5.2
  15. IMDB                                     : tt5834854
  16. TMDB                                     : movie/419706
  17.  
  18. Video
  19. ID                                       : 1
  20. Format                                   : AVC
  21. Format/Info                              : Advanced Video Codec
  22. Format profile                           : High@L4.1
  23. Format settings                          : CABAC / 4 Ref Frames
  24. Format settings, CABAC                   : Yes
  25. Format settings, Reference frames        : 4 frames
  26. Codec ID                                 : V_MPEG4/ISO/AVC
  27. Duration                                 : 1 h 24 min
  28. Bit rate mode                            : Variable
  29. Bit rate                                 : 20.7 Mb/s
  30. Maximum bit rate                         : 36.0 Mb/s
  31. Width                                    : 1 920 pixels
  32. Height                                   : 1 080 pixels
  33. Display aspect ratio                     : 16:9
  34. Frame rate mode                          : Constant
  35. Frame rate                               : 23.976 (24000/1001) FPS
  36. Color space                              : YUV
  37. Chroma subsampling                       : 4:2:0
  38. Bit depth                                : 8 bits
  39. Scan type                                : Progressive
  40. Bits/(Pixel*Frame)                       : 0.417
  41. Stream size                              : 12.2 GiB (85%)
  42. Title                                    : MPEG-4 AVC Video / 20989 kbps / 1080p / 23.976 fps / 16:9 / High Profile 4.1
  43. Language                                 : English
  44. Default                                  : Yes
  45. Forced                                   : No
  46.  
  47. Audio
  48. ID                                       : 2
  49. Format                                   : DTS XLL
  50. Format/Info                              : Digital Theater Systems
  51. Commercial name                          : DTS-HD Master Audio
  52. Codec ID                                 : A_DTS
  53. Duration                                 : 1 h 24 min
  54. Bit rate mode                            : Variable
  55. Bit rate                                 : 3 715 kb/s
  56. Channel(s)                               : 6 channels
  57. Channel layout                           : C L R Ls Rs LFE
  58. Sampling rate                            : 48.0 kHz
  59. Frame rate                               : 93.750 FPS (512 SPF)
  60. Bit depth                                : 24 bits
  61. Compression mode                         : Lossless
  62. Stream size                              : 2.19 GiB (15%)
  63. Title                                    : DTS-HD Master Audio / 5.1 / 48 kHz / 3714 kbps / 24-bit
  64. Language                                 : English
  65. Default                                  : Yes
  66. Forced                                   : No
  67.  
  68. Text #1
  69. ID                                       : 3
  70. Format                                   : PGS
  71. Codec ID                                 : S_HDMV/PGS
  72. Codec ID/Info                            : Picture based subtitle format used on BDs/HD-DVDs
  73. Duration                                 : 1 h 23 min
  74. Bit rate                                 : 18.9 kb/s
  75. Count of elements                        : 1858
  76. Stream size                              : 11.3 MiB (0%)
  77. Title                                    : SDH
  78. Language                                 : English
  79. Default                                  : No
  80. Forced                                   : No
  81.  
  82. Text #2
  83. ID                                       : 4
  84. Format                                   : PGS
  85. Codec ID                                 : S_HDMV/PGS
  86. Codec ID/Info                            : Picture based subtitle format used on BDs/HD-DVDs
  87. Duration                                 : 1 h 16 min
  88. Bit rate                                 : 19.5 kb/s
  89. Count of elements                        : 1724
  90. Stream size                              : 10.7 MiB (0%)
  91. Title                                    : Latin American
  92. Language                                 : Spanish
  93. Default                                  : No
  94. Forced                                   : No
  95.  
  96. Menu
  97. 00:00:00.000                             : en:Chapter 1
  98. 00:10:13.279                             : en:Chapter 2
  99. 00:21:38.422                             : en:Chapter 3
  100. 00:32:06.967                             : en:Chapter 4
  101. 00:41:11.552                             : en:Chapter 5
  102. 00:51:35.092                             : en:Chapter 6
  103. 01:01:38.028                             : en:Chapter 7
  104. 01:17:30.855                             : en:Chapter 8
RAW Paste Data
We use cookies for various purposes including analytics. By continuing to use Pastebin, you agree to our use of cookies as described in the Cookies Policy. OK, I Understand
Top