Advertisement
Guest User

capture3.ts info

a guest
Apr 3rd, 2014
207
Never
Not a member of Pastebin yet? Sign Up, it unlocks many cool features!
text 4.75 KB | None
  1. General
  2. ID : 1 (0x1)
  3. Complete name : ...\capture3.ts
  4. Format : MPEG-TS
  5. File size : 26.3 MiB
  6. Duration : 30s 355ms
  7. Overall bit rate : 7 268 Kbps
  8.  
  9. Video
  10. ID : 1001 (0x3E9)
  11. Menu ID : 100 (0x64)
  12. Format : AVC
  13. Format/Info : Advanced Video Codec
  14. Format profile : High@L4.0
  15. Format settings, CABAC : Yes
  16. Format settings, ReFrames : 4 frames
  17. Codec ID : 27
  18. Duration : 29s 520ms
  19. Bit rate : 6 004 Kbps
  20. Width : 1 440 pixels
  21. Height : 1 080 pixels
  22. Display aspect ratio : 16:9
  23. Frame rate : 25.000 fps
  24. Color space : YUV
  25. Chroma subsampling : 4:2:0
  26. Bit depth : 8 bits
  27. Scan type : MBAFF
  28. Bits/(Pixel*Frame) : 0.154
  29. Stream size : 21.1 MiB (80%)
  30. Color primaries : BT.709-5, BT.1361, IEC 61966-2-4, SMPTE RP177
  31. Transfer characteristics : BT.709-5, BT.1361
  32. Matrix coefficients : BT.709-5, BT.1361, IEC 61966-2-4 709, SMPTE RP177
  33.  
  34. Audio #1
  35. ID : 1002 (0x3EA)
  36. Menu ID : 100 (0x64)
  37. Format : MPEG Audio
  38. Format version : Version 1
  39. Format profile : Layer 2
  40. Mode : Joint stereo
  41. Codec ID : 3
  42. Duration : 30s 192ms
  43. Bit rate mode : Constant
  44. Bit rate : 128 Kbps
  45. Channel(s) : 2 channels
  46. Sampling rate : 48.0 KHz
  47. Compression mode : Lossy
  48. Delay relative to video : -344ms
  49. Stream size : 472 KiB (2%)
  50. Language : Hungarian
  51.  
  52. Audio #2
  53. ID : 1004 (0x3EC)
  54. Menu ID : 100 (0x64)
  55. Format : AC-3
  56. Format/Info : Audio Coding 3
  57. Mode extension : CM (complete main)
  58. Codec ID : 6
  59. Duration : 30s 336ms
  60. Bit rate mode : Constant
  61. Bit rate : 384 Kbps
  62. Channel(s) : 2 channels
  63. Channel positions : Front: L R
  64. Sampling rate : 48.0 KHz
  65. Bit depth : 16 bits
  66. Compression mode : Lossy
  67. Delay relative to video : -473ms
  68. Stream size : 1.39 MiB (5%)
  69. Language : Hungarian
  70.  
  71. Audio #3
  72. ID : 1008 (0x3F0)
  73. Menu ID : 100 (0x64)
  74. Format : AC-3
  75. Format/Info : Audio Coding 3
  76. Mode extension : CM (complete main)
  77. Codec ID : 6
  78. Duration : 30s 336ms
  79. Bit rate mode : Constant
  80. Bit rate : 384 Kbps
  81. Channel(s) : 2 channels
  82. Channel positions : Front: L R
  83. Sampling rate : 48.0 KHz
  84. Bit depth : 16 bits
  85. Compression mode : Lossy
  86. Delay relative to video : -473ms
  87. Stream size : 1.39 MiB (5%)
  88. Language : Multiple languages
  89.  
  90. Text #1
  91. ID : 1003 (0x3EB)-100
  92. Menu ID : 100 (0x64)
  93. Format : Teletext
  94. Language : Hungarian
  95.  
  96. Text #2
  97. ID : 1003 (0x3EB)-111
  98. Menu ID : 100 (0x64)
  99. Format : Teletext Subtitle
  100. Language : Hungarian
Advertisement
RAW Paste Data Copied
Advertisement