Advertisement
Henry_Kr

GITSL-2013

Mar 14th, 2022
56
Never
Not a member of Pastebin yet? Sign Up, it unlocks many cool features!
  1. Video
  2. ID : 1
  3. Format : AVC
  4. Format/Info : Advanced Video Codec
  5. Format profile : High@L4
  6. Format settings : CABAC / 4 Ref Frames
  7. Format settings, CABAC : Yes
  8. Format settings, Reference : 4 frames
  9. Codec ID : V_MPEG4/ISO/AVC
  10. Duration : 58 min 21 s
  11. Bit rate mode : Variable
  12. Bit rate : 8 250 kb/s
  13. Maximum bit rate : 12.4 Mb/s
  14. Width : 1 920 pixels
  15. Height : 1 080 pixels
  16. Display aspect ratio : 16:9
  17. Frame rate mode : Constant
  18. Frame rate : 29.970 (30000/1001) FPS
  19. Color space : YUV
  20. Chroma subsampling : 4:2:0
  21. Bit depth : 8 bits
  22. Scan type : Progressive
  23. Bits/(Pixel*Frame) : 0.133
  24. Stream size : 3.36 GiB (91%)
  25. Title : Ghost.in.the.Shell.Arise.Limite.1.Dor.Fantasma.1080p.HMAX.WEB.[CartoonNOW]
  26. Writing library : x264 core 157 r2965 861cec4
  27. Encoding settings : cabac=1 / ref=4 / deblock=1:0:0 / analyse=0x3:0x113 / me=hex / subme=7 / psy=1 / psy_rd=1.00:0.00 / mixed_ref=1 / me_range=16 / chroma_me=1 / trellis=1 / 8x8dct=1 / cqm=0 / deadzone=21,11 / fast_pskip=1 / chroma_qp_offset=-2 / threads=34 / lookahead_threads=5 / sliced_threads=0 / nr=0 / decimate=1 / interlaced=0 / bluray_compat=0 / constrained_intra=0 / bframes=3 / b_pyramid=2 / b_adapt=1 / b_bias=0 / direct=1 / weightb=1 / open_gop=0 / weightp=2 / keyint=120 / keyint_min=120 / scenecut=40 / intra_refresh=0 / rc_lookahead=40 / rc=2pass / mbtree=1 / bitrate=8250 / ratetol=1.0 / qcomp=0.60 / qpmin=0 / qpmax=69 / qpstep=4 / cplxblur=20.0 / qblur=0.5 / vbv_maxrate=12375 / vbv_bufsize=6187 / nal_hrd=vbr / filler=0 / ip_ratio=1.40 / aq=1:1.00
  28. Language : Japanese
  29. Default : Yes
  30. Forced : No
  31. Color range : Limited
  32. Color primaries : BT.709
  33. Transfer characteristics : BT.709
  34. Matrix coefficients : BT.709
  35.  
  36. Audio #1
  37. ID : 2
  38. Format : AC-3
  39. Format/Info : Audio Coding 3
  40. Commercial name : Dolby Digital
  41. Codec ID : A_AC3
  42. Duration : 58 min 21 s
  43. Bit rate mode : Constant
  44. Bit rate : 384 kb/s
  45. Channel(s) : 2 channels
  46. Channel layout : L R
  47. Sampling rate : 48.0 kHz
  48. Frame rate : 31.250 FPS (1536 SPF)
  49. Compression mode : Lossy
  50. Stream size : 160 MiB (4%)
  51. Title : AC3 2.0
  52. Language : Portuguese
  53. Service kind : Complete Main
  54. Default : Yes
  55. Forced : No
  56.  
  57. Audio #2
  58. ID : 3
  59. Format : AC-3
  60. Format/Info : Audio Coding 3
  61. Commercial name : Dolby Digital
  62. Codec ID : A_AC3
  63. Duration : 58 min 21 s
  64. Bit rate mode : Constant
  65. Bit rate : 384 kb/s
  66. Channel(s) : 6 channels
  67. Channel layout : L R C LFE Ls Rs
  68. Sampling rate : 48.0 kHz
  69. Frame rate : 31.250 FPS (1536 SPF)
  70. Compression mode : Lossy
  71. Stream size : 160 MiB (4%)
  72. Title : AC3 5.1
  73. Language : Japanese
  74. Service kind : Complete Main
  75. Default : No
  76. Forced : No
  77.  
  78. Text
  79. ID : 4
  80. Format : UTF-8
  81. Codec ID : S_TEXT/UTF8
  82. Codec ID/Info : UTF-8 Plain Text
  83. Duration : 57 min 15 s
  84. Bit rate : 51 b/s
  85. Count of elements : 537
  86. Stream size : 21.7 KiB (0%)
  87. Title : Completa
  88. Language : Portuguese
  89. Default : No
  90. Forced : No
Advertisement
Advertisement
Advertisement
RAW Paste Data Copied
Advertisement