SHARE
TWEET

Untitled

a guest Jan 8th, 2019 86 Never
Not a member of Pastebin yet? Sign Up, it unlocks many cool features!
  1. General
  2. Unique ID                                : 142856571341596610806512502479605898493 (0x6B792CC2F6FF2EDDE2A549904D829CFD)
  3. Complete name                            : N:\Peliculas\Copy of VENOM 2018 LATINO UHD 4K HDR BDREMUX 2160P  GDRIVELATINOHD\VENOM 2018 LATINO UHD 4K HDR BDREMUX 2160P _ [wWw.DescargaPelisHD.CoM].mkv
  4. Format                                   : Matroska
  5. Format version                           : Version 4
  6. File size                                : 53.0 GiB
  7. Duration                                 : 1 h 52 min
  8. Overall bit rate mode                    : Variable
  9. Overall bit rate                         : 67.7 Mb/s
  10. Movie name                               : Venom.2018.2160p.BluRay.REMUX.HEVC.DTS-HD.MA.TrueHD.7.1.Atmos-FGT
  11. Encoded date                             : UTC 2018-12-10 23:15:13
  12. Writing application                      : mkvmerge v29.0.0 ('Like It Or Not') 64-bit
  13. Writing library                          : libebml v1.3.6 + libmatroska v1.4.9
  14. Cover                                    : Yes
  15. Attachments                              : small_cover.jpg / small_cover_land.jpg / cover.jpg / cover_land.jpg
  16.  
  17. Video #1
  18. ID                                       : 1
  19. Format                                   : HEVC
  20. Format/Info                              : High Efficiency Video Coding
  21. Commercial name                          : HDR10
  22. Format profile                           : Main 10@L5.1@High
  23. Codec ID                                 : V_MPEGH/ISO/HEVC
  24. Duration                                 : 1 h 52 min
  25. Bit rate                                 : 53.5 Mb/s
  26. Width                                    : 3 840 pixels
  27. Height                                   : 2 160 pixels
  28. Display aspect ratio                     : 16:9
  29. Frame rate mode                          : Constant
  30. Frame rate                               : 23.976 (24000/1001) FPS
  31. Color space                              : YUV
  32. Chroma subsampling                       : 4:2:0 (Type 2)
  33. Bit depth                                : 10 bits
  34. Bits/(Pixel*Frame)                       : 0.269
  35. Stream size                              : 41.9 GiB (79%)
  36. Title                                    : Venom.2018.2160p.BluRay.REMUX.HEVC.DTS-HD.MA.TrueHD.7.1.Atmos-FGT
  37. Default                                  : Yes
  38. Forced                                   : No
  39. Color range                              : Limited
  40. Color primaries                          : BT.2020
  41. Transfer characteristics                 : PQ
  42. Matrix coefficients                      : BT.2020 non-constant
  43. Mastering display color primaries        : Display P3
  44. Mastering display luminance              : min: 0.0050 cd/m2, max: 4000 cd/m2
  45. Maximum Content Light Level              : 3903 cd/m2
  46. Maximum Frame-Average Light Level        : 1076 cd/m2
  47.  
  48. Video #2
  49. ID                                       : 2
  50. Format                                   : HEVC
  51. Format/Info                              : High Efficiency Video Coding
  52. Commercial name                          : HDR10
  53. Format profile                           : Main 10@L5.1@High
  54. Codec ID                                 : V_MPEGH/ISO/HEVC
  55. Duration                                 : 1 h 52 min
  56. Bit rate                                 : 2 085 kb/s
  57. Width                                    : 1 920 pixels
  58. Height                                   : 1 080 pixels
  59. Display aspect ratio                     : 16:9
  60. Frame rate mode                          : Constant
  61. Frame rate                               : 23.976 (24000/1001) FPS
  62. Color space                              : YUV
  63. Chroma subsampling                       : 4:2:0 (Type 2)
  64. Bit depth                                : 10 bits
  65. Bits/(Pixel*Frame)                       : 0.042
  66. Stream size                              : 1.63 GiB (3%)
  67. Title                                    : Venom.2018.2160p.BluRay.REMUX.HEVC.DTS-HD.MA.TrueHD.7.1.Atmos-FGT
  68. Default                                  : No
  69. Forced                                   : No
  70. Color range                              : Limited
  71. Color primaries                          : BT.2020
  72. Transfer characteristics                 : PQ
  73. Matrix coefficients                      : BT.2020 non-constant
  74. Mastering display color primaries        : Display P3
  75. Mastering display luminance              : min: 0.0050 cd/m2, max: 4000 cd/m2
  76.  
  77. Audio #1
  78. ID                                       : 3
  79. Format                                   : MLP FBA 16-ch
  80. Format/Info                              : Meridian Lossless Packing FBA with 16-channel presentation
  81. Commercial name                          : Dolby TrueHD with Dolby Atmos
  82. Codec ID                                 : A_TRUEHD
  83. Duration                                 : 1 h 52 min
  84. Bit rate mode                            : Variable
  85. Bit rate                                 : 3 212 kb/s
  86. Maximum bit rate                         : 5 394 kb/s
  87. Channel(s)                               : 8 channels
  88. Channel layout                           : L R C LFE Ls Rs Lb Rb
  89. Sampling rate                            : 48.0 kHz
  90. Frame rate                               : 1 200.000 FPS (40 SPF)
  91. Compression mode                         : Lossless
  92. Stream size                              : 2.52 GiB (5%)
  93. Title                                    : Venom.2018.2160p.BluRay.REMUX.HEVC.DTS-HD.MA.TrueHD.7.1.Atmos-FGT
  94. Language                                 : English
  95. Default                                  : Yes
  96. Forced                                   : No
  97. Number of dynamic objects                : 11
  98. Bed channel count                        : 1 channel
  99. Bed channel configuration                : LFE
  100.  
  101. Audio #2
  102. ID                                       : 4
  103. Format                                   : DTS XLL
  104. Format/Info                              : Digital Theater Systems
  105. Commercial name                          : DTS-HD Master Audio
  106. Codec ID                                 : A_DTS
  107. Duration                                 : 1 h 52 min
  108. Bit rate mode                            : Variable
  109. Bit rate                                 : 3 844 kb/s
  110. Channel(s)                               : 8 channels
  111. Channel layout                           : C L R LFE Lb Rb Lss Rss
  112. Sampling rate                            : 48.0 kHz
  113. Frame rate                               : 93.750 FPS (512 SPF)
  114. Bit depth                                : 24 bits
  115. Compression mode                         : Lossless
  116. Delay relative to video                  : -8 ms
  117. Stream size                              : 3.01 GiB (6%)
  118. Title                                    : Venom.2018.2160p.BluRay.REMUX.HEVC.DTS-HD.MA.TrueHD.7.1.Atmos-FGT
  119. Language                                 : English
  120. Default                                  : No
  121. Forced                                   : No
  122.  
  123. Audio #3
  124. ID                                       : 5
  125. Format                                   : AC-3
  126. Format/Info                              : Audio Coding 3
  127. Commercial name                          : Dolby Digital
  128. Codec ID                                 : A_AC3
  129. Duration                                 : 1 h 52 min
  130. Bit rate mode                            : Constant
  131. Bit rate                                 : 640 kb/s
  132. Channel(s)                               : 6 channels
  133. Channel layout                           : L R C LFE Ls Rs
  134. Sampling rate                            : 48.0 kHz
  135. Frame rate                               : 31.250 FPS (1536 SPF)
  136. Bit depth                                : 16 bits
  137. Compression mode                         : Lossy
  138. Stream size                              : 513 MiB (1%)
  139. Title                                    : Venom.2018.2160p.BluRay.REMUX.HEVC.DTS-HD.MA.TrueHD.7.1.Atmos-FGT
  140. Language                                 : English
  141. Service kind                             : Complete Main
  142. Default                                  : No
  143. Forced                                   : No
  144.  
  145. Audio #4
  146. ID                                       : 6
  147. Format                                   : AC-3
  148. Format/Info                              : Audio Coding 3
  149. Commercial name                          : Dolby Digital
  150. Codec ID                                 : A_AC3
  151. Duration                                 : 1 h 52 min
  152. Bit rate mode                            : Constant
  153. Bit rate                                 : 640 kb/s
  154. Channel(s)                               : 6 channels
  155. Channel layout                           : L R C LFE Ls Rs
  156. Sampling rate                            : 48.0 kHz
  157. Frame rate                               : 31.250 FPS (1536 SPF)
  158. Bit depth                                : 16 bits
  159. Compression mode                         : Lossy
  160. Delay relative to video                  : 24 ms
  161. Stream size                              : 513 MiB (1%)
  162. Title                                    : Venom.2018.2160p.BluRay.REMUX.HEVC.DTS-HD.MA.TrueHD.7.1.Atmos-FGT
  163. Language                                 : English
  164. Service kind                             : Complete Main
  165. Default                                  : No
  166. Forced                                   : No
  167.  
  168. Audio #5
  169. ID                                       : 7
  170. Format                                   : DTS XLL
  171. Format/Info                              : Digital Theater Systems
  172. Commercial name                          : DTS-HD Master Audio
  173. Codec ID                                 : A_DTS
  174. Duration                                 : 1 h 52 min
  175. Bit rate mode                            : Variable
  176. Bit rate                                 : 2 377 kb/s
  177. Channel(s)                               : 6 channels
  178. Channel layout                           : C L R Ls Rs LFE
  179. Sampling rate                            : 48.0 kHz
  180. Frame rate                               : 93.750 FPS (512 SPF)
  181. Bit depth                                : 16 bits
  182. Compression mode                         : Lossless
  183. Stream size                              : 1.86 GiB (4%)
  184. Title                                    : Venom.2018.2160p.BluRay.REMUX.HEVC.DTS-HD.MA.TrueHD.7.1.Atmos-FGT
  185. Language                                 : French
  186. Default                                  : No
  187. Forced                                   : No
  188.  
  189. Audio #6
  190. ID                                       : 8
  191. Format                                   : AC-3
  192. Format/Info                              : Audio Coding 3
  193. Commercial name                          : Dolby Digital
  194. Codec ID                                 : A_AC3
  195. Duration                                 : 1 h 52 min
  196. Bit rate mode                            : Constant
  197. Bit rate                                 : 640 kb/s
  198. Channel(s)                               : 6 channels
  199. Channel layout                           : L R C LFE Ls Rs
  200. Sampling rate                            : 48.0 kHz
  201. Frame rate                               : 31.250 FPS (1536 SPF)
  202. Bit depth                                : 16 bits
  203. Compression mode                         : Lossy
  204. Delay relative to video                  : 24 ms
  205. Stream size                              : 513 MiB (1%)
  206. Title                                    : Venom.2018.2160p.BluRay.REMUX.HEVC.DTS-HD.MA.TrueHD.7.1.Atmos-FGT
  207. Language                                 : French
  208. Service kind                             : Complete Main
  209. Default                                  : No
  210. Forced                                   : No
  211.  
  212. Audio #7
  213. ID                                       : 9
  214. Format                                   : AC-3
  215. Format/Info                              : Audio Coding 3
  216. Commercial name                          : Dolby Digital
  217. Codec ID                                 : A_AC3
  218. Duration                                 : 1 h 52 min
  219. Bit rate mode                            : Constant
  220. Bit rate                                 : 640 kb/s
  221. Channel(s)                               : 6 channels
  222. Channel layout                           : L R C LFE Ls Rs
  223. Sampling rate                            : 48.0 kHz
  224. Frame rate                               : 31.250 FPS (1536 SPF)
  225. Bit depth                                : 16 bits
  226. Compression mode                         : Lossy
  227. Delay relative to video                  : 24 ms
  228. Stream size                              : 513 MiB (1%)
  229. Title                                    : Venom.2018.2160p.BluRay.REMUX.HEVC.DTS-HD.MA.TrueHD.7.1.Atmos-FGT
  230. Language                                 : Spanish
  231. Service kind                             : Complete Main
  232. Default                                  : No
  233. Forced                                   : No
  234.  
  235. Text #1
  236. ID                                       : 10
  237. Format                                   : UTF-8
  238. Codec ID                                 : S_TEXT/UTF8
  239. Codec ID/Info                            : UTF-8 Plain Text
  240. Duration                                 : 1 h 49 min
  241. Bit rate                                 : 56 b/s
  242. Count of elements                        : 1470
  243. Stream size                              : 45.6 KiB (0%)
  244. Title                                    : English-SRT
  245. Language                                 : English
  246. Default                                  : Yes
  247. Forced                                   : No
  248.  
  249. Text #2
  250. ID                                       : 11
  251. Format                                   : UTF-8
  252. Codec ID                                 : S_TEXT/UTF8
  253. Codec ID/Info                            : UTF-8 Plain Text
  254. Duration                                 : 1 h 49 min
  255. Bit rate                                 : 68 b/s
  256. Count of elements                        : 1824
  257. Stream size                              : 55.0 KiB (0%)
  258. Title                                    : English-SDH-SRT
  259. Default                                  : No
  260. Forced                                   : No
  261.  
  262. Text #3
  263. ID                                       : 12
  264. Format                                   : PGS
  265. Muxing mode                              : zlib
  266. Codec ID                                 : S_HDMV/PGS
  267. Codec ID/Info                            : Picture based subtitle format used on BDs/HD-DVDs
  268. Duration                                 : 1 h 49 min
  269. Bit rate                                 : 44.8 kb/s
  270. Count of elements                        : 3661
  271. Stream size                              : 35.0 MiB (0%)
  272. Title                                    : English-PGS
  273. Language                                 : English
  274. Default                                  : No
  275. Forced                                   : No
  276.  
  277. Text #4
  278. ID                                       : 13
  279. Format                                   : PGS
  280. Muxing mode                              : zlib
  281. Codec ID                                 : S_HDMV/PGS
  282. Codec ID/Info                            : Picture based subtitle format used on BDs/HD-DVDs
  283. Duration                                 : 1 h 49 min
  284. Bit rate                                 : 32.6 kb/s
  285. Count of elements                        : 2702
  286. Stream size                              : 25.5 MiB (0%)
  287. Title                                    : English-SDH-PGS
  288. Language                                 : English
  289. Default                                  : No
  290. Forced                                   : No
  291.  
  292. Text #5
  293. ID                                       : 14
  294. Format                                   : PGS
  295. Muxing mode                              : zlib
  296. Codec ID                                 : S_HDMV/PGS
  297. Codec ID/Info                            : Picture based subtitle format used on BDs/HD-DVDs
  298. Duration                                 : 1 h 50 min
  299. Bit rate                                 : 26.1 kb/s
  300. Count of elements                        : 2394
  301. Stream size                              : 20.6 MiB (0%)
  302. Title                                    : French-PGS
  303. Language                                 : French
  304. Default                                  : No
  305. Forced                                   : No
  306.  
  307. Text #6
  308. ID                                       : 15
  309. Format                                   : PGS
  310. Muxing mode                              : zlib
  311. Codec ID                                 : S_HDMV/PGS
  312. Codec ID/Info                            : Picture based subtitle format used on BDs/HD-DVDs
  313. Duration                                 : 1 h 50 min
  314. Bit rate                                 : 27.6 kb/s
  315. Count of elements                        : 2370
  316. Stream size                              : 21.8 MiB (0%)
  317. Title                                    : Spanish-PGS
  318. Language                                 : Spanish
  319. Default                                  : No
  320. Forced                                   : No
  321.  
  322. Text #7
  323. ID                                       : 16
  324. Format                                   : PGS
  325. Muxing mode                              : zlib
  326. Codec ID                                 : S_HDMV/PGS
  327. Codec ID/Info                            : Picture based subtitle format used on BDs/HD-DVDs
  328. Duration                                 : 1 h 49 min
  329. Bit rate                                 : 114 b/s
  330. Count of elements                        : 10
  331. Stream size                              : 92.3 KiB (0%)
  332. Title                                    : French-FORCED-PGS
  333. Language                                 : French
  334. Default                                  : No
  335. Forced                                   : No
  336.  
  337. Menu
  338. 00:00:00.000                             : :Chapter 1
  339. 00:04:43.199                             : :Chapter 2
  340. 00:10:58.074                             : :Chapter 3
  341. 00:17:34.928                             : :Chapter 4
  342. 00:24:05.485                             : :Chapter 5
  343. 00:32:18.811                             : :Chapter 6
  344. 00:40:07.446                             : :Chapter 7
  345. 00:46:51.975                             : :Chapter 8
  346. 00:53:26.203                             : :Chapter 9
  347. 01:00:57.070                             : :Chapter 10
  348. 01:04:01.796                             : :Chapter 11
  349. 01:08:36.445                             : :Chapter 12
  350. 01:11:12.851                             : :Chapter 13
  351. 01:14:15.742                             : :Chapter 14
  352. 01:21:18.748                             : :Chapter 15
  353. 01:27:15.021                             : :Chapter 16
RAW Paste Data
We use cookies for various purposes including analytics. By continuing to use Pastebin, you agree to our use of cookies as described in the Cookies Policy. OK, I Understand
 
Top