SHARE
TWEET

Leatherface 2017 BDRIP 1080p HEVC

a guest Oct 17th, 2019 141 Never
Not a member of Pastebin yet? Sign Up, it unlocks many cool features!
  1. General
  2. Unique ID : 207017842681787914702238481473072169321 (0x9BBE2FAC65CFA50D358AFD5856728169)
  3. Complete name : H:HEVC-CLUBLeatherface (2017) BDRip 1080p [HEVC] 10bit.mkv
  4. Format : Matroska
  5. Format version : Version 4
  6. File size : 6.42 GiB
  7. Duration : 1 h 27 min
  8. Overall bit rate : 10.5 Mb/s
  9. Movie name : Техасская резня бензопилой: Кожаное лицо
  10. Encoded date : UTC 2019-07-19 17:59:17
  11. Writing application : mkvmerge v25.0.0 ('Prog Noir') 64-bit
  12. Writing library : libebml v1.3.6 + libmatroska v1.4.9 / Lavf57.71.100
  13. Attachments : poster.jpg
  14. ACTORS : Стивен Дорфф, Ванесса Грасс,
  15. COUNTRY : США
  16. DATE : 2017
  17. DIRECTOR : Александр Бустильо
  18. ENCODING_INFO : MPEGTS > MKV / H264 > X265 CRF 19.0 Пользовательский 2
  19. GENRE : ужасы, триллер, криминал
  20. HD_VIDEO : 1
  21. Language : und
  22. MEDIA_TYPE : 9
  23. ORIGINAL_TITLE : Leatherface
  24.  
  25. Video
  26. ID : 1
  27. Format : HEVC
  28. Format/Info : High Efficiency Video Coding
  29. Format profile : Main 10@L4.1@High
  30. Codec ID : V_MPEGH/ISO/HEVC
  31. Duration : 1 h 27 min
  32. Bit rate : 9 588 kb/s
  33. Width : 1 920 pixels
  34. Height : 808 pixels
  35. Display aspect ratio : 2.40:1
  36. Frame rate mode : Constant
  37. Frame rate : 23.976 (24000/1001) FPS
  38. Color space : YUV
  39. Chroma subsampling : 4:2:0
  40. Bit depth : 10 bits
  41. Bits/(Pixel*Frame) : 0.258
  42. Stream size : 5.87 GiB (91%)
  43. Writing library : x265 2.9+9-f74003e88622:[Windows][GCC 8.2.0][64 bit] 10bit
  44. Encoding settings : cpuid=1111039 / frame-threads=13 / numa-pools=12 / wpp / no-pmode / no-pme / no-psnr / no-ssim / log-level=3 / input-csp=1 / input-res=1920x808 / interlace=0 / total-frames=0 / level-idc=41 / high-tier=1 / uhd-bd=0 / ref=5 / allow-non-conformance / no-repeat-headers / annexb / no-aud / no-hrd / info / hash=0 / no-temporal-layers / open-gop / min-keyint=23 / keyint=240 / gop-lookahead=0 / bframes=8 / b-adapt=2 / b-pyramid / bframe-bias=0 / rc-lookahead=60 / lookahead-slices=4 / scenecut=40 / radl=0 / no-intra-refresh / ctu=64 / min-cu-size=8 / rect / amp / max-tu-size=32 / tu-inter-depth=4 / tu-intra-depth=4 / limit-tu=0 / rdoq-level=2 / dynamic-rd=0.00 / no-ssim-rd / signhide / no-tskip / nr-intra=0 / nr-inter=0 / no-constrained-intra / no-strong-intra-smoothing / max-merge=5 / limit-refs=2 / limit-modes / me=3 / subme=7 / merange=57 / temporal-mvp / weightp / weightb / no-analyze-src-pics / deblock=-3:-3 / no-sao / no-sao-non-deblock / rd=6 / no-early-skip / rskip / no-fast-intra / no-tskip-fast / no-cu-lossless / b-intra / no-splitrd-skip / rdpenalty=0 / psy-rd=2.00 / psy-rdoq=1.00 / no-rd-refine / no-lossless / cbqpoffs=0 / crqpoffs=0 / rc=crf / crf=19.0 / qcomp=0.70 / qpstep=4 / stats-write=0 / stats-read=0 / vbv-maxrate=50000 / vbv-bufsize=50000 / vbv-init=0.9 / crf-max=0.0 / crf-min=0.0 / ipratio=1.40 / pbratio=1.30 / aq-mode=2 / aq-strength=1.00 / no-cutree / zone-count=0 / no-strict-cbr / qg-size=32 / no-rc-grain / qpmax=69 / qpmin=0 / no-const-vbv / sar=1 / overscan=0 / videoformat=5 / range=0 / colorprim=1 / transfer=1 / colormatrix=1 / chromaloc=0 / display-window=0 / max-cll=0,0 / min-luma=0 / max-luma=1023 / log2-max-poc-lsb=8 / vui-timing-info / vui-hrd-info / slices=1 / no-opt-qp-pps / no-opt-ref-list-length-pps / no-multi-pass-opt-rps / scenecut-bias=0.05 / no-opt-cu-delta-qp / aq-motion / no-hdr / no-hdr-opt / no-dhdr10-opt / no-idr-recovery-sei / analysis-reuse-level=5 / scale-factor=0 / refine-intra=0 / refine-inter=0 / refine-mv=0 / no-limit-sao / ctu-info=0 / no-lowpass-dct / refine-mv-type=0 / copy-pic=1 / max-ausize-factor=1.0 / no-dynamic-refine / no-single-sei
  45. Default : Yes
  46. Forced : No
  47. Color range : Limited
  48. Color primaries : BT.709
  49. Transfer characteristics : BT.709
  50. Matrix coefficients : BT.709
  51.  
  52. Audio #1
  53. ID : 2
  54. Format : AC-3
  55. Format/Info : Audio Coding 3
  56. Commercial name : Dolby Digital
  57. Codec ID : A_AC3
  58. Duration : 1 h 27 min
  59. Bit rate mode : Constant
  60. Bit rate : 448 kb/s
  61. Channel(s) : 6 channels
  62. Channel layout : L R C LFE Ls Rs
  63. Sampling rate : 48.0 kHz
  64. Frame rate : 31.250 FPS (1536 SPF)
  65. Bit depth : 16 bits
  66. Compression mode : Lossy
  67. Stream size : 281 MiB (4%)
  68. Title : Dub | DD 5.1 @ 448 kbps - R5
  69. Language : Russian
  70. Service kind : Complete Main
  71. Default : Yes
  72. Forced : No
  73.  
  74. Audio #2
  75. ID : 3
  76. Format : AC-3
  77. Format/Info : Audio Coding 3
  78. Commercial name : Dolby Digital
  79. Codec ID : A_AC3
  80. Duration : 1 h 27 min
  81. Bit rate mode : Constant
  82. Bit rate : 448 kb/s
  83. Channel(s) : 6 channels
  84. Channel layout : L R C LFE Ls Rs
  85. Sampling rate : 48.0 kHz
  86. Frame rate : 31.250 FPS (1536 SPF)
  87. Bit depth : 16 bits
  88. Compression mode : Lossy
  89. Stream size : 281 MiB (4%)
  90. Title : Original | DD 5.1 @ 448 kbps
  91. Language : English
  92. Service kind : Complete Main
  93. Default : No
  94. Forced : No
  95.  
  96. Text #1
  97. ID : 4
  98. Format : UTF-8
  99. Codec ID : S_TEXT/UTF8
  100. Codec ID/Info : UTF-8 Plain Text
  101. Duration : 1 h 21 min
  102. Bit rate : 52 b/s
  103. Count of elements : 1003
  104. Stream size : 31.2 KiB (0%)
  105. Language : Russian
  106. Default : No
  107. Forced : No
  108.  
  109. Text #2
  110. ID : 5
  111. Format : UTF-8
  112. Codec ID : S_TEXT/UTF8
  113. Codec ID/Info : UTF-8 Plain Text
  114. Duration : 1 h 21 min
  115. Bit rate : 36 b/s
  116. Count of elements : 728
  117. Stream size : 21.5 KiB (0%)
  118. Title : Full
  119. Language : English
  120. Default : No
  121. Forced : No
  122.  
  123. Menu
  124. 00:00:00.000 : :Глава 1
  125. 00:07:50.511 : :Глава 2
  126. 00:15:38.979 : :Глава 3
  127. 00:24:21.168 : :Глава 4
  128. 00:33:48.067 : :Глава 5
  129. 00:43:06.667 : :Глава 6
  130. 00:53:56.316 : :Глава 7
  131. 01:01:58.172 : :Глава 8
  132. 01:10:35.397 : :Глава 9
  133. 01:18:13.939 : :Глава 10
  134. 01:26:02.532 : :Глава 11
RAW Paste Data
We use cookies for various purposes including analytics. By continuing to use Pastebin, you agree to our use of cookies as described in the Cookies Policy. OK, I Understand
 
Top