SHARE
TWEET

the passage

a guest Oct 10th, 2019 88 Never
Not a member of Pastebin yet? Sign Up, it unlocks many cool features!
  1. General
  2. Unique ID                                : 123955913597734239170855349459786736536 (0x5D410A6354CFFAFF0C34899E2B312398)
  3. Complete name                            : The.Passage.S01E01.MULTi.1080p.HDTV.H264-SH0W
  4. Format                                   : Matroska
  5. Format version                           : Version 4
  6. File size                                : 1.37 GiB
  7. Duration                                 : 42 min 18 s
  8. Overall bit rate                         : 4 644 kb/s
  9. Encoded date                             : UTC 2019-10-10 19:43:24
  10. Writing application                      : mkvmerge v38.0.0 ('The Silent Type') 64-bit
  11. Writing library                          : libebml v1.3.9 + libmatroska v1.5.2
  12.  
  13. Video
  14. ID                                       : 1
  15. Format                                   : AVC
  16. Format/Info                              : Advanced Video Codec
  17. Format profile                           : High@L4
  18. Format settings                          : CABAC / 4 Ref Frames
  19. Format settings, CABAC                   : Yes
  20. Format settings, Reference frames        : 4 frames
  21. Format settings, GOP                     : M=2, N=24
  22. Codec ID                                 : V_MPEG4/ISO/AVC
  23. Duration                                 : 42 min 18 s
  24. Bit rate                                 : 4 258 kb/s
  25. Width                                    : 1 920 pixels
  26. Height                                   : 1 080 pixels
  27. Display aspect ratio                     : 16:9
  28. Frame rate mode                          : Constant
  29. Frame rate                               : 25.000 FPS
  30. Standard                                 : Component
  31. Color space                              : YUV
  32. Chroma subsampling                       : 4:2:0
  33. Bit depth                                : 8 bits
  34. Scan type                                : MBAFF
  35. Scan type, store method                  : Interleaved fields
  36. Scan order                               : Top Field First
  37. Bits/(Pixel*Frame)                       : 0.082
  38. Stream size                              : 1.26 GiB (92%)
  39. Default                                  : Yes
  40. Forced                                   : No
  41. Color range                              : Limited
  42. Color primaries                          : BT.709
  43. Transfer characteristics                 : BT.709
  44. Matrix coefficients                      : BT.709
  45.  
  46. Audio #1
  47. ID                                       : 2
  48. Format                                   : MPEG Audio
  49. Format version                           : Version 1
  50. Format profile                           : Layer 2
  51. Codec ID                                 : A_MPEG/L2
  52. Codec ID/Hint                            : MP2
  53. Duration                                 : 42 min 18 s
  54. Bit rate mode                            : Constant
  55. Bit rate                                 : 192 kb/s
  56. Channel(s)                               : 2 channels
  57. Sampling rate                            : 48.0 kHz
  58. Frame rate                               : 41.667 FPS (1152 SPF)
  59. Compression mode                         : Lossy
  60. Stream size                              : 58.1 MiB (4%)
  61. Title                                    : French
  62. Language                                 : French
  63. Default                                  : Yes
  64. Forced                                   : No
  65.  
  66. Audio #2
  67. ID                                       : 3
  68. Format                                   : MPEG Audio
  69. Format version                           : Version 1
  70. Format profile                           : Layer 2
  71. Codec ID                                 : A_MPEG/L2
  72. Codec ID/Hint                            : MP2
  73. Duration                                 : 42 min 18 s
  74. Bit rate mode                            : Constant
  75. Bit rate                                 : 192 kb/s
  76. Channel(s)                               : 2 channels
  77. Sampling rate                            : 48.0 kHz
  78. Frame rate                               : 41.667 FPS (1152 SPF)
  79. Compression mode                         : Lossy
  80. Stream size                              : 58.1 MiB (4%)
  81. Title                                    : English
  82. Language                                 : English
  83. Default                                  : No
  84. Forced                                   : No
  85.  
  86. Text
  87. ID                                       : 4
  88. Format                                   : UTF-8
  89. Codec ID                                 : S_TEXT/UTF8
  90. Codec ID/Info                            : UTF-8 Plain Text
  91. Duration                                 : 42 min 0 s
  92. Bit rate                                 : 63 b/s
  93. Count of elements                        : 603
  94. Stream size                              : 19.7 KiB (0%)
  95. Title                                    : French
  96. Language                                 : French
  97. Default                                  : No
  98. Forced                                   : No
RAW Paste Data
We use cookies for various purposes including analytics. By continuing to use Pastebin, you agree to our use of cookies as described in the Cookies Policy. OK, I Understand
Top