SHARE
TWEET

Untitled

TheRealDudeMe Oct 27th, 2019 123 Never
Not a member of Pastebin yet? Sign Up, it unlocks many cool features!
  1. General
  2. Unique ID                                : 150479432752513918493068908199436512581 (0x713548D89CD89933EF352CA53BDA6D45)
  3. Complete name                            : Tangled.2010.2160p.UHD.BluRay.REMUX.HDR.HEVC.Atmos-EPSiLON.mkv
  4. Format                                   : Matroska
  5. Format version                           : Version 4 / Version 2
  6. File size                                : 42.8 GiB
  7. Duration                                 : 1h 40mn
  8. Overall bit rate mode                    : Variable
  9. Overall bit rate                         : 61.1 Mbps
  10. Movie name                               : Tangled (2010)
  11. Encoded date                             : UTC 2019-10-26 01:16:32
  12. Writing application                      : mkvmerge v38.0.0 ('The Silent Type') 64-bit
  13. Writing library                          : libebml v1.3.9 + libmatroska v1.5.2
  14. IMDB                                     : tt0398286
  15. TMDB                                     : movie/38757
  16.  
  17. Video
  18. ID                                       : 1
  19. Format                                   : HEVC
  20. Format/Info                              : High Efficiency Video Coding
  21. Format profile                           : Main 10@L5.1@High
  22. Codec ID                                 : V_MPEGH/ISO/HEVC
  23. Duration                                 : 1h 40mn
  24. Bit rate                                 : 52.5 Mbps
  25. Width                                    : 3 840 pixels
  26. Height                                   : 2 160 pixels
  27. Display aspect ratio                     : 16:9
  28. Frame rate mode                          : Constant
  29. Frame rate                               : 23.976 (24000/1001) fps
  30. Color space                              : YUV
  31. Chroma subsampling                       : 4:2:0
  32. Bit depth                                : 10 bits
  33. Bits/(Pixel*Frame)                       : 0.264
  34. Stream size                              : 36.8 GiB (86%)
  35. Title                                    : MPEG-H HEVC Video / 52699 kbps / 2160p / 23.976 fps / 16:9 / Main 10 @ Level 5.1 @ High / 10 bits / HDR10 / BT.2020
  36. Writing library                          : ATEME Titan File 3.9.0 (4.9.0.0)    
  37. Language                                 : English
  38. Default                                  : Yes
  39. Forced                                   : No
  40. Color range                              : Limited
  41. Color primaries                          : BT.2020
  42. Matrix coefficients                      : BT.2020 non-constant
  43.  
  44. Audio #1
  45. ID                                       : 2
  46. Format                                   : Atmos / TrueHD
  47. Codec ID                                 : A_TRUEHD
  48. Duration                                 : 1h 40mn
  49. Bit rate mode                            : Variable
  50. Bit rate                                 : 7 753 Kbps
  51. Maximum bit rate                         : 9 480 Kbps
  52. Channel(s)                               : Object Based / 8 channels
  53. Channel positions                        : Object Based / Front: L C R, Side: L R, Back: L R, LFE
  54. Sampling rate                            :  / 48.0 KHz
  55. Frame rate                               : 1 200.000 fps (40 spf)
  56. Compression mode                         : Lossless
  57. Stream size                              : 5.43 GiB (13%)
  58. Title                                    : Dolby TrueHD/Atmos Audio / 7.1 / 48 kHz / 7757 kbps / 24-bit
  59. Language                                 : English
  60. Default                                  : Yes
  61. Forced                                   : No
  62.  
  63. Audio #2
  64. ID                                       : 3
  65. Format                                   : AC-3
  66. Format/Info                              : Audio Coding 3
  67. Mode extension                           : CM (complete main)
  68. Format settings, Endianness              : Big
  69. Codec ID                                 : A_AC3
  70. Duration                                 : 1h 40mn
  71. Bit rate mode                            : Constant
  72. Bit rate                                 : 640 Kbps
  73. Channel(s)                               : 6 channels
  74. Channel positions                        : Front: L C R, Side: L R, LFE
  75. Sampling rate                            : 48.0 KHz
  76. Frame rate                               : 31.250 fps (1536 spf)
  77. Compression mode                         : Lossy
  78. Stream size                              : 459 MiB (1%)
  79. Title                                    : Compatibility Track / Dolby Digital Audio / 5.1 / 48 kHz / 640 kbps
  80. Language                                 : English
  81. Default                                  : No
  82. Forced                                   : No
  83.  
  84. Text #1
  85. ID                                       : 4
  86. Format                                   : PGS
  87. Codec ID                                 : S_HDMV/PGS
  88. Codec ID/Info                            : Picture based subtitle format used on BDs/HD-DVDs
  89. Duration                                 : 1h 39mn
  90. Bit rate                                 : 34.2 Kbps
  91. Count of elements                        : 2538
  92. Stream size                              : 24.3 MiB (0%)
  93. Title                                    : SDH
  94. Language                                 : English
  95. Default                                  : No
  96. Forced                                   : No
  97.  
  98. Text #2
  99. ID                                       : 5
  100. Format                                   : PGS
  101. Codec ID                                 : S_HDMV/PGS
  102. Codec ID/Info                            : Picture based subtitle format used on BDs/HD-DVDs
  103. Duration                                 : 1h 39mn
  104. Bit rate                                 : 28.2 Kbps
  105. Count of elements                        : 1850
  106. Stream size                              : 20.0 MiB (0%)
  107. Title                                    : Canadian
  108. Language                                 : French
  109. Default                                  : No
  110. Forced                                   : No
  111.  
  112. Text #3
  113. ID                                       : 6
  114. Format                                   : PGS
  115. Codec ID                                 : S_HDMV/PGS
  116. Codec ID/Info                            : Picture based subtitle format used on BDs/HD-DVDs
  117. Duration                                 : 1h 30mn
  118. Bit rate                                 : 24.4 Kbps
  119. Count of elements                        : 2014
  120. Stream size                              : 15.7 MiB (0%)
  121. Language                                 : Japanese
  122. Default                                  : No
  123. Forced                                   : No
  124.  
  125. Text #4
  126. ID                                       : 7
  127. Format                                   : PGS
  128. Codec ID                                 : S_HDMV/PGS
  129. Codec ID/Info                            : Picture based subtitle format used on BDs/HD-DVDs
  130. Duration                                 : 1h 39mn
  131. Bit rate                                 : 25.1 Kbps
  132. Count of elements                        : 1814
  133. Stream size                              : 17.8 MiB (0%)
  134. Title                                    : Latin American
  135. Language                                 : Spanish
  136. Default                                  : No
  137. Forced                                   : No
  138.  
  139. Menu
  140. 00:00:00.000                             : en:The Lost Princess
  141. 00:08:20.959                             : en:Mother Knows Best
  142. 00:15:43.276                             : en:Meet Flynn Rider
  143. 00:24:41.230                             : en:Making a Deal
  144. 00:34:42.163                             : en:The Snuggly Duckling
  145. 00:42:30.882                             : en:The Escape
  146. 00:50:25.939                             : en:In the Woods
  147. 00:59:21.933                             : en:The Best Day of Your Life
  148. 01:10:35.648                             : en:Betrayed
  149. 01:19:23.425                             : en:The Rescue
  150. 01:25:22.033                             : en:A New Dream
  151. 01:31:20.892                             : en:End Credits
RAW Paste Data
We use cookies for various purposes including analytics. By continuing to use Pastebin, you agree to our use of cookies as described in the Cookies Policy. OK, I Understand
Top