SHARE
TWEET

Dumbo BluRay 720p

dirtyharrys Jun 14th, 2019 62 Never
Not a member of Pastebin yet? Sign Up, it unlocks many cool features!
  1. General
  2. Unique ID                   : 209110571492812458500082263532829352844 (0x9D513B2B81724BD19A2317C3D1D3238C)
  3. Complete name               : E:\QlJSRHVtYm8.mkv
  4. Format                      : Matroska
  5. Format version              : Version 4
  6. File size                   : 2.03 GiB
  7. Duration                    : 1 h 51 min
  8. Overall bit rate            : 2 598 kb/s
  9. Movie name                  : Dumbo BR-RIP / Dumbo BR-RIP
  10. Encoded date                : UTC 2019-06-14 07:46:04
  11. Writing application         : mkvmerge v30.1.0 ('Forever And More') 32-bit
  12. Writing library             : libebml v1.3.6 + libmatroska v1.4.9
  13. Copyright                   : Movies HDs 2019
  14. ARTIST                      : HarshLearner
  15.  
  16. Video
  17. ID                          : 1
  18. Format                      : AVC
  19. Format/Info                 : Advanced Video Codec
  20. Format profile              : High@L4.1
  21. Format settings             : CABAC / 4 Ref Frames
  22. Format settings, CABAC      : Yes
  23. Format settings, ReFrames   : 4 frames
  24. Codec ID                    : V_MPEG4/ISO/AVC
  25. Duration                    : 1 h 51 min
  26. Bit rate                    : 1 500 kb/s
  27. Width                       : 1 280 pixels
  28. Height                      : 694 pixels
  29. Display aspect ratio        : 1.85:1
  30. Frame rate mode             : Constant
  31. Frame rate                  : 23.976 (24000/1001) FPS
  32. Color space                 : YUV
  33. Chroma subsampling          : 4:2:0
  34. Bit depth                   : 8 bits
  35. Scan type                   : Progressive
  36. Bits/(Pixel*Frame)          : 0.070
  37. Stream size                 : 1.17 GiB (58%)
  38. Title                       : Dumbo
  39. Writing library             : x264 core 155 r2901 7d0ff22
  40. Default                     : Yes
  41. Forced                      : No
  42. Color range                 : Limited
  43. Color primaries             : BT.709
  44. Transfer characteristics    : BT.709
  45. Matrix coefficients         : BT.709
  46.  
  47. Audio #1
  48. ID                          : 2
  49. Format                      : AC-3
  50. Format/Info                 : Audio Coding 3
  51. Commercial name             : Dolby Digital
  52. Codec ID                    : A_AC3
  53. Duration                    : 1 h 51 min
  54. Bit rate mode               : Constant
  55. Bit rate                    : 448 kb/s
  56. Channel(s)                  : 6 channels
  57. Channel layout              : L R C LFE Ls Rs
  58. Sampling rate               : 48.0 kHz
  59. Frame rate                  : 31.250 FPS (1536 SPF)
  60. Bit depth                   : 16 bits
  61. Compression mode            : Lossy
  62. Delay relative to video     : 1 s 345 ms
  63. Stream size                 : 359 MiB (17%)
  64. Language                    : English
  65. Service kind                : Complete Main
  66. Default                     : No
  67. Forced                      : No
  68.  
  69. Audio #2
  70. ID                          : 3
  71. Format                      : AC-3
  72. Format/Info                 : Audio Coding 3
  73. Commercial name             : Dolby Digital
  74. Codec ID                    : A_AC3
  75. Duration                    : 1 h 51 min
  76. Bit rate mode               : Constant
  77. Bit rate                    : 640 kb/s
  78. Channel(s)                  : 6 channels
  79. Channel layout              : L R C LFE Ls Rs
  80. Sampling rate               : 48.0 kHz
  81. Frame rate                  : 31.250 FPS (1536 SPF)
  82. Bit depth                   : 16 bits
  83. Compression mode            : Lossy
  84. Delay relative to video     : -5 ms
  85. Stream size                 : 512 MiB (25%)
  86. Language                    : Spanish
  87. Service kind                : Complete Main
  88. Default                     : Yes
  89. Forced                      : Yes
  90.  
  91. Text #1
  92. ID                          : 4
  93. Format                      : PGS
  94. Muxing mode                 : zlib
  95. Codec ID                    : S_HDMV/PGS
  96. Codec ID/Info               : Picture based subtitle format used on BDs/HD-DVDs
  97. Duration                    : 1 h 41 min
  98. Bit rate                    : 27.8 kb/s
  99. Count of elements           : 2320
  100. Stream size                 : 20.2 MiB (1%)
  101. Language                    : Spanish
  102. Default                     : No
  103. Forced                      : No
  104.  
  105. Text #2
  106. ID                          : 5
  107. Format                      : PGS
  108. Muxing mode                 : zlib
  109. Codec ID                    : S_HDMV/PGS
  110. Codec ID/Info               : Picture based subtitle format used on BDs/HD-DVDs
  111. Duration                    : 1 h 14 min
  112. Bit rate                    : 605 b/s
  113. Count of elements           : 26
  114. Stream size                 : 330 KiB (0%)
  115. Language                    : Spanish
  116. Default                     : No
  117. Forced                      : No
  118.  
  119. Text #3
  120. ID                          : 6
  121. Format                      : UTF-8
  122. Codec ID                    : S_TEXT/UTF8
  123. Codec ID/Info               : UTF-8 Plain Text
  124. Duration                    : 1 h 41 min
  125. Bit rate                    : 42 b/s
  126. Count of elements           : 1207
  127. Stream size                 : 31.2 KiB (0%)
  128. Language                    : English
  129. Default                     : No
  130. Forced                      : No
  131.  
  132. Text #4
  133. ID                          : 7
  134. Format                      : UTF-8
  135. Codec ID                    : S_TEXT/UTF8
  136. Codec ID/Info               : UTF-8 Plain Text
  137. Duration                    : 1 h 41 min
  138. Bit rate                    : 44 b/s
  139. Count of elements           : 1161
  140. Stream size                 : 33.0 KiB (0%)
  141. Language                    : Spanish
  142. Default                     : Yes
  143. Forced                      : Yes
  144.  
  145. Text #5
  146. ID                          : 8
  147. Format                      : UTF-8
  148. Codec ID                    : S_TEXT/UTF8
  149. Codec ID/Info               : UTF-8 Plain Text
  150. Duration                    : 1 h 14 min
  151. Bit rate                    : 0 b/s
  152. Count of elements           : 13
  153. Stream size                 : 431 Bytes (0%)
  154. Language                    : Spanish
  155. Default                     : No
  156. Forced                      : No
  157.  
  158. Menu
  159. 00:00:00.000                : :Capítulo 01
  160. 00:05:00.000                : :Capítulo 02
  161. 00:10:00.000                : :Capítulo 03
  162. 00:15:00.000                : :Capítulo 04
  163. 00:20:00.000                : :Capítulo 05
  164. 00:25:00.000                : :Capítulo 06
  165. 00:30:00.000                : :Capítulo 07
  166. 00:35:00.000                : :Capítulo 08
  167. 00:40:00.000                : :Capítulo 09
  168. 00:45:00.000                : :Capítulo 10
  169. 00:50:00.000                : :Capítulo 11
  170. 00:55:00.000                : :Capítulo 12
  171. 01:00:00.000                : :Capítulo 13
  172. 01:05:00.000                : :Capítulo 14
  173. 01:10:00.000                : :Capítulo 15
  174. 01:15:00.000                : :Capítulo 16
  175. 01:20:00.000                : :Capítulo 17
  176. 01:25:00.000                : :Capítulo 18
  177. 01:30:00.000                : :Capítulo 19
  178. 01:35:00.000                : :Capítulo 20
  179. 01:40:00.000                : :Capítulo 21
  180. 01:45:00.000                : :Capítulo 22
  181. 01:50:00.000                : :Capítulo 23
RAW Paste Data
We use cookies for various purposes including analytics. By continuing to use Pastebin, you agree to our use of cookies as described in the Cookies Policy. OK, I Understand
 
Top