Interfilm

Untitled

Jun 15th, 2014
160
Never
Not a member of Pastebin yet? Sign Up, it unlocks many cool features!
  1. General Unique ID : 250378820533832094666993704548861835541 (0xBC5D34F03B57D0D3998C4EE237817915) Complete name : M:Afflicted 2013 HDR BDRip 720p.mkv Format : Matroska Format version : Version 4 / Version 2 File size : 4.87 GiB Duration : 1h 25mn Overall bit rate : 8 137 Kbps Movie name : Afflicted 2013 HDR BDRip 720p Encoded date : UTC 2014-06-13 05:58:18 Writing application : mkvmerge v7.0.0 ('Where We Going') 64bit built on Jun 9 2014 15:16:27 Writing library : libebml v1.3.0 + libmatroska v1.4.1 DURATION : 01:20:43.560000000 NUMBER_OF_FRAMES : 973 NUMBER_OF_BYTES : 3010708 _STATISTICS_WRITING_APP : mkvmerge v7.0.0 ('Where We Going') 64bit built on Jun 9 2014 15:16:27 _STATISTICS_WRITING_DATE_UTC : 2014-06-13 05:58:18 _STATISTICS_TAGS : BPS DURATION NUMBER_OF_FRAMES NUMBER_OF_BYTES Attachment : Yes Video #1 ID : 1 Format : AVC Format/Info : Advanced Video Codec Format profile : High@L4.1 Format settings, CABAC : Yes Format settings, ReFrames : 5 frames Codec ID : V_MPEG4/ISO/AVC Duration : 1h 25mn Bit rate : 5 782 Kbps Width : 1 280 pixels Height : 696 pixels Display aspect ratio : 1.85:1 Frame rate mode : Constant Frame rate : 23.976 fps Color space : YUV Chroma subsampling : 4:2:0 Bit depth : 8 bits Scan type : Progressive Bits/(Pixel*Frame) : 0.271 Stream size : 3.38 GiB (69%) Title : Afflicted 2013 HDR BDRip 720p Writing library : x264 core 142 r2431 ac76440 Encoding settings : cabac=1 / ref=5 / deblock=1:0:0 / analyse=0x3:0x133 / me=umh / subme=7 / psy=1 / psy_rd=1.00:0.00 / mixed_ref=1 / me_range=16 / chroma_me=1 / trellis=1 / 8x8dct=1 / cqm=0 / deadzone=21,11 / fast_pskip=0 / chroma_qp_offset=-2 / threads=18 / lookahead_threads=3 / sliced_threads=0 / nr=0 / decimate=1 / interlaced=0 / bluray_compat=0 / constrained_intra=0 / bframes=3 / b_pyramid=2 / b_adapt=1 / b_bias=0 / direct=1 / weightb=1 / open_gop=0 / weightp=2 / keyint=250 / keyint_min=23 / scenecut=40 / intra_refresh=0 / rc_lookahead=40 / rc=2pass / mbtree=1 / bitrate=5782 / ratetol=1.0 / qcomp=0.60 / qpmin=0 / qpmax=69 / qpstep=4 / cplxblur=20.0 / qblur=0.5 / ip_ratio=1.40 / aq=1:1.00 Language : English Default : Yes Forced : No DURATION : 01:25:45.440000000 NUMBER_OF_FRAMES : 123367 NUMBER_OF_BYTES : 3715966058 _STATISTICS_WRITING_APP : mkvmerge v7.0.0 ('Where We Going') 64bit built on Jun 9 2014 15:16:27 _STATISTICS_WRITING_DATE_UTC : 2014-06-13 05:58:18 _STATISTICS_TAGS : BPS DURATION NUMBER_OF_FRAMES NUMBER_OF_BYTES Audio #2 ID : 2 Format : AC-3 Format/Info : Audio Coding 3 Mode extension : CM (complete main) Format settings, Endianness : Big Codec ID : A_AC3 Duration : 1h 25mn Bit rate mode : Constant Bit rate : 192 Kbps Channel count : 2 channels Channel positions : Front: L R Sampling rate : 48.0 KHz Bit depth : 16 bits Compression mode : Lossy Stream size : 118 MiB (2%) Title : ➨ VO datynet Language : Russian Default : Yes Forced : No Audio #3 ID : 3 Format : DTS Format/Info : Digital Theater Systems Mode : 16 Format settings, Endianness : Big Codec ID : A_DTS Duration : 1h 25mn Bit rate mode : Constant Bit rate : 1 509 Kbps Channel count : 6 channels Channel positions : Front: L C R, Side: L R, LFE Sampling rate : 48.0 KHz Bit depth : 24 bits Compression mode : Lossy Stream size : 926 MiB (19%) Title : ➨ Original Language : English Default : No Forced : No Audio #4 ID : 4 Format : AC-3 Format/Info : Audio Coding 3 Mode extension : CM (complete main) Format settings, Endianness : Big Codec ID : A_AC3 Duration : 1h 25mn Bit rate mode : Constant Bit rate : 640 Kbps Channel count : 6 channels Channel positions : Front: L C R, Side: L R, LFE Sampling rate : 48.0 KHz Bit depth : 16 bits Compression mode : Lossy Stream size : 393 MiB (8%) Title : ➨ Original Language : English Default : No Forced : No Text #5 ID : 5 Format : VobSub Muxing mode : zlib Codec ID : S_VOBSUB Codec ID/Info : The same subtitle format used on DVDs Title : ➨ Full Language : English Default : No Forced : No Text #6 ID : 6 Format : VobSub Muxing mode : zlib Codec ID : S_VOBSUB Codec ID/Info : The same subtitle format used on DVDs Title : ➨ SDH Language : English Default : No Forced : No Text #7 ID : 7 Format : VobSub Muxing mode : zlib Codec ID : S_VOBSUB Codec ID/Info : The same subtitle format used on DVDs Title : ➨ Full Language : Spanish Default : No Forced : No Menu 00:00:00.000 : en: ➨ HDR 01 00:04:46.495 : en: ➨ HDR 02 00:09:52.133 : en: ➨ HDR 03 00:15:36.102 : en: ➨ HDR 04 00:18:40.244 : en: ➨ HDR 05 00:28:27.539 : en: ➨ HDR 06 00:35:15.780 : en: ➨ HDR 07 00:38:58.586 : en: ➨ HDR 08 00:43:48.000 : en: ➨ HDR 09 00:47:27.678 : en: ➨ HDR 10 00:50:34.281 : en: ➨ HDR 11 00:54:14.751 : en: ➨ HDR 12 01:01:20.552 : en: ➨ HDR 13 01:10:33.354 : en: ➨ HDR 14 01:16:33.297 : en: ➨ HDR 15 01:19:30.516 : en: ➨ HDR 16
RAW Paste Data