SHARE
TWEET

[Harunatsu] Eromanga-sensei - 03 [CC82F2BE].mkv

HYBRID_BEING Jul 23rd, 2017 108 Never
Not a member of Pastebin yet? Sign Up, it unlocks many cool features!
  1. General
  2. Unique ID                                : 201106913931840386214211557103934243166 (0x974BC862BA44BEF7B62737F2888E015E)
  3. Complete name                            : [Harunatsu] Eromanga-sensei - 03 [CC82F2BE].mkv
  4. Format                                   : Matroska
  5. Format version                           : Version 4 / Version 2
  6. File size                                : 232 MiB
  7. Duration                                 : 23mn 35s
  8. Overall bit rate                         : 1 374 Kbps
  9. Encoded date                             : UTC 2017-06-21 10:16:42
  10. Writing application                      : mkvmerge v7.5.0 ('Glass Culture') 32bit built on Jan  4 2015 16:37:25
  11. Writing library                          : libebml v1.3.1 + libmatroska v1.4.2
  12. Attachments                              : LinotypeFinnegan Medium.ttf / LinotypeFinnegan MediumItalic.ttf / ShannonStd-Bold-EienStinx.ttf / ARR__.TTF / ASAP-BOLD.TTF / COMMS___.TTF / FOT-HummingStd-Accel-B.ttf / IwaOMinPro-Bd-Fate_4.ttf
  13.  
  14. Video
  15. ID                                       : 1
  16. Format                                   : AVC
  17. Format/Info                              : Advanced Video Codec
  18. Format profile                           : High 10@L5
  19. Format settings, CABAC                   : Yes
  20. Format settings, ReFrames                : 16 frames
  21. Codec ID                                 : V_MPEG4/ISO/AVC
  22. Duration                                 : 23mn 34s
  23. Bit rate                                 : 1 235 Kbps
  24. Width                                    : 1 280 pixels
  25. Height                                   : 720 pixels
  26. Display aspect ratio                     : 16:9
  27. Frame rate mode                          : Constant
  28. Frame rate                               : 23.976 (24000/1001) fps
  29. Color space                              : YUV
  30. Chroma subsampling                       : 4:2:0
  31. Bit depth                                : 10 bits
  32. Scan type                                : Progressive
  33. Bits/(Pixel*Frame)                       : 0.056
  34. Stream size                              : 208 MiB (90%)
  35. Title                                    : 720p 10bit
  36. Writing library                          : x264 core 148 r2744+55 950084e t_mod_Custom [10-bit@all X86]
  37. Encoding settings                        : cabac=1 / ref=16 / deblock=1:0:0 / analyse=0x3:0x133 / me=tesa / subme=11 / psy=1 / fade_compensate=0.00 / psy_rd=0.75:0.00 / mixed_ref=1 / me_range=32 / chroma_me=1 / trellis=2 / 8x8dct=1 / cqm=0 / deadzone=21,11 / fast_pskip=1 / chroma_qp_offset=-4 / threads=18 / lookahead_threads=4 / sliced_threads=0 / nr=0 / decimate=1 / interlaced=0 / bluray_compat=0 / constrained_intra=0 / fgo=0 / bframes=16 / b_pyramid=2 / b_adapt=2 / b_bias=0 / direct=3 / weightb=1 / open_gop=0 / weightp=2 / keyint=250 / keyint_min=24 / scenecut=40 / intra_refresh=0 / rc_lookahead=60 / rc=crf / mbtree=1 / crf=16.0000 / qcomp=0.75 / qpmin=0:0:0 / qpmax=81:81:81 / qpstep=4 / ip_ratio=1.40 / aq=3:0.70 / aq-sensitivity=10.00 / aq-factor=1.00:1.00:1.00 / aq2=0 / aq3=0
  38. Language                                 : Japanese
  39. Default                                  : Yes
  40. Forced                                   : No
  41. Color range                              : Limited
  42. Matrix coefficients                      : BT.709
  43.  
  44. Audio
  45. ID                                       : 2
  46. Format                                   : AAC
  47. Format/Info                              : Advanced Audio Codec
  48. Format profile                           : LC
  49. Codec ID                                 : A_AAC
  50. Duration                                 : 23mn 35s
  51. Bit rate                                 : 126 Kbps
  52. Channel(s)                               : 2 channels
  53. Channel positions                        : Front: L R
  54. Sampling rate                            : 44.1 KHz
  55. Frame rate                               : 43.066 fps (1024 spf)
  56. Compression mode                         : Lossy
  57. Stream size                              : 21.2 MiB (9%)
  58. Language                                 : Japanese
  59. Default                                  : Yes
  60. Forced                                   : No
  61.  
  62. Text
  63. ID                                       : 3
  64. Format                                   : ASS
  65. Codec ID                                 : S_TEXT/ASS
  66. Codec ID/Info                            : Advanced Sub Station Alpha
  67. Duration                                 : 23mn 33s
  68. Bit rate                                 : 2 817 bps
  69. Count of elements                        : 2928
  70. Compression mode                         : Lossless
  71. Stream size                              : 486 KiB (0%)
  72. Title                                    : Harunatsu
  73. Language                                 : English
  74. Default                                  : Yes
  75. Forced                                   : No
  76.  
  77. Menu
  78. 00:00:00.010                             : en:Prologue
  79. 00:00:17.530                             : en:Opening
  80. 00:01:47.040                             : en:Part A
  81. 00:12:28.010                             : en:Half Time
  82. 00:12:30.520                             : en:Part B
  83. 00:22:00.500                             : en:Ending
  84. 00:23:30.010                             : en:Next Episode
RAW Paste Data
We use cookies for various purposes including analytics. By continuing to use Pastebin, you agree to our use of cookies as described in the Cookies Policy. OK, I Understand
Top