SHARE
TWEET

Untitled

a guest Dec 23rd, 2019 279 Never
Not a member of Pastebin yet? Sign Up, it unlocks many cool features!
  1. General
  2. Unique ID                   : 176802962556853191423610828034689622251 (0x8503031169E7D6C6AE4A9500FF2260EB)
  3. Complete name               :The.Witcher.S01E01.iNTERNAL.HDR.2160p.WEBRiP.DDP5.1.x265-SNAHP.mkv
  4. Format                      : Matroska
  5. Format version              : Version 4 / Version 2
  6. File size                   : 7.11 GiB
  7. Duration                    : 59 min 17 s
  8. Overall bit rate            : 17.2 Mb/s
  9. Encoded date                : UTC 2019-12-23 13:17:09
  10. Writing application         : mkvmerge v9.5.0 ('Quiet Fire') 64bit
  11. Writing library             : libebml v1.3.4 + libmatroska v1.4.5
  12.  
  13. Video
  14. ID                          : 1
  15. Format                      : HEVC
  16. Format/Info                 : High Efficiency Video Coding
  17. Format profile              : Main 10@L5@High
  18. Codec ID                    : V_MPEGH/ISO/HEVC
  19. Duration                    : 59 min 17 s
  20. Bit rate                    : 16.4 Mb/s
  21. Width                       : 3 840 pixels
  22. Height                      : 1 920 pixels
  23. Display aspect ratio        : 2.000
  24. Frame rate mode             : Constant
  25. Frame rate                  : 24.000 FPS
  26. Color space                 : YUV
  27. Chroma subsampling          : 4:2:0 (Type 2)
  28. Bit depth                   : 10 bits
  29. Bits/(Pixel*Frame)          : 0.093
  30. Stream size                 : 6.79 GiB (96%)
  31. Default                     : Yes
  32. Forced                      : No
  33. Color range                 : Limited
  34. Color primaries             : BT.2020
  35. Transfer characteristics    : SMPTE ST 2084
  36. Matrix coefficients         : BT.2020 non-constant
  37. Mastering display color pri : R: x=0.680000 y=0.320000, G: x=0.265000 y=0.690000, B: x=0.150000 y=0.060000, White point: x=0.312700 y=0.329000
  38. Mastering display luminance : min: 0.0001 cd/m2, max: 1000.0000 cd/m2
  39. Maximum Content Light Level : 1078 cd/m2
  40. Maximum Frame-Average Light : 96 cd/m2
  41.  
  42. Audio
  43. ID                          : 2
  44. Format                      : E-AC-3
  45. Format/Info                 : Enhanced Audio Coding 3
  46. Format settings, Endianness : Big
  47. Codec ID                    : A_EAC3
  48. Duration                    : 59 min 15 s
  49. Bit rate mode               : Constant
  50. Bit rate                    : 768 kb/s
  51. Channel(s)                  : 6 channels
  52. Channel positions           : Front: L C R, Side: L R, LFE
  53. Sampling rate               : 48.0 kHz
  54. Frame rate                  : 187.500 FPS (256 spf)
  55. Compression mode            : Lossy
  56. Delay relative to video     : 24 ms
  57. Stream size                 : 325 MiB (4%)
  58. Title                       : English
  59. Language                    : English
  60. Default                     : Yes
  61. Forced                      : No
  62.  
  63. Text #1
  64. ID                          : 3
  65. Format                      : UTF-8
  66. Codec ID                    : S_TEXT/UTF8
  67. Codec ID/Info               : UTF-8 Plain Text
  68. Duration                    : 56 min 37 s
  69. Bit rate                    : 43 b/s
  70. Count of elements           : 643
  71. Stream size                 : 18.0 KiB (0%)
  72. Language                    : English
  73. Default                     : No
  74. Forced                      : No
  75.  
  76. Text #2
  77. ID                          : 4
  78. Format                      : UTF-8
  79. Codec ID                    : S_TEXT/UTF8
  80. Codec ID/Info               : UTF-8 Plain Text
  81. Duration                    : 58 min 33 s
  82. Bit rate                    : 46 b/s
  83. Count of elements           : 748
  84. Stream size                 : 20.0 KiB (0%)
  85. Title                       : SDH
  86. Language                    : English
  87. Default                     : No
  88. Forced                      : No
  89.  
  90. Text #3
  91. ID                          : 5
  92. Format                      : UTF-8
  93. Codec ID                    : S_TEXT/UTF8
  94. Codec ID/Info               : UTF-8 Plain Text
  95. Duration                    : 58 min 35 s
  96. Bit rate                    : 69 b/s
  97. Count of elements           : 629
  98. Stream size                 : 30.0 KiB (0%)
  99. Language                    : Arabic
  100. Default                     : No
  101. Forced                      : No
  102.  
  103. Text #4
  104. ID                          : 6
  105. Format                      : UTF-8
  106. Codec ID                    : S_TEXT/UTF8
  107. Codec ID/Info               : UTF-8 Plain Text
  108. Duration                    : 58 min 35 s
  109. Bit rate                    : 39 b/s
  110. Count of elements           : 623
  111. Stream size                 : 16.8 KiB (0%)
  112. Language                    : Czech
  113. Default                     : No
  114. Forced                      : No
  115.  
  116. Text #5
  117. ID                          : 7
  118. Format                      : UTF-8
  119. Codec ID                    : S_TEXT/UTF8
  120. Codec ID/Info               : UTF-8 Plain Text
  121. Duration                    : 58 min 35 s
  122. Bit rate                    : 39 b/s
  123. Count of elements           : 557
  124. Stream size                 : 16.8 KiB (0%)
  125. Language                    : Danish
  126. Default                     : No
  127. Forced                      : No
  128.  
  129. Text #6
  130. ID                          : 8
  131. Format                      : UTF-8
  132. Codec ID                    : S_TEXT/UTF8
  133. Codec ID/Info               : UTF-8 Plain Text
  134. Duration                    : 58 min 35 s
  135. Bit rate                    : 43 b/s
  136. Count of elements           : 537
  137. Stream size                 : 18.6 KiB (0%)
  138. Language                    : German
  139. Default                     : No
  140. Forced                      : No
  141.  
  142. Text #7
  143. ID                          : 9
  144. Format                      : UTF-8
  145. Codec ID                    : S_TEXT/UTF8
  146. Codec ID/Info               : UTF-8 Plain Text
  147. Duration                    : 58 min 35 s
  148. Bit rate                    : 75 b/s
  149. Count of elements           : 620
  150. Stream size                 : 32.6 KiB (0%)
  151. Language                    : Greek
  152. Default                     : No
  153. Forced                      : No
  154.  
  155. Text #8
  156. ID                          : 10
  157. Format                      : UTF-8
  158. Codec ID                    : S_TEXT/UTF8
  159. Codec ID/Info               : UTF-8 Plain Text
  160. Duration                    : 58 min 35 s
  161. Bit rate                    : 40 b/s
  162. Count of elements           : 593
  163. Stream size                 : 17.3 KiB (0%)
  164. Language                    : Spanish
  165. Default                     : No
  166. Forced                      : No
  167.  
  168. Text #9
  169. ID                          : 11
  170. Format                      : UTF-8
  171. Codec ID                    : S_TEXT/UTF8
  172. Codec ID/Info               : UTF-8 Plain Text
  173. Duration                    : 58 min 35 s
  174. Bit rate                    : 37 b/s
  175. Count of elements           : 607
  176. Stream size                 : 16.2 KiB (0%)
  177. Title                       : European
  178. Language                    : Spanish
  179. Default                     : No
  180. Forced                      : No
  181.  
  182. Text #10
  183. ID                          : 12
  184. Format                      : UTF-8
  185. Codec ID                    : S_TEXT/UTF8
  186. Codec ID/Info               : UTF-8 Plain Text
  187. Duration                    : 58 min 34 s
  188. Bit rate                    : 39 b/s
  189. Count of elements           : 512
  190. Stream size                 : 17.0 KiB (0%)
  191. Language                    : Finnish
  192. Default                     : No
  193. Forced                      : No
  194.  
  195. Text #11
  196. ID                          : 13
  197. Format                      : UTF-8
  198. Codec ID                    : S_TEXT/UTF8
  199. Codec ID/Info               : UTF-8 Plain Text
  200. Duration                    : 58 min 35 s
  201. Bit rate                    : 38 b/s
  202. Count of elements           : 615
  203. Stream size                 : 16.6 KiB (0%)
  204. Language                    : French
  205. Default                     : No
  206. Forced                      : No
  207.  
  208. Text #12
  209. ID                          : 14
  210. Format                      : UTF-8
  211. Codec ID                    : S_TEXT/UTF8
  212. Codec ID/Info               : UTF-8 Plain Text
  213. Duration                    : 58 min 35 s
  214. Bit rate                    : 64 b/s
  215. Count of elements           : 624
  216. Stream size                 : 27.6 KiB (0%)
  217. Language                    : Hebrew
  218. Default                     : No
  219. Forced                      : No
  220.  
  221. Text #13
  222. ID                          : 15
  223. Format                      : UTF-8
  224. Codec ID                    : S_TEXT/UTF8
  225. Codec ID/Info               : UTF-8 Plain Text
  226. Duration                    : 58 min 35 s
  227. Bit rate                    : 38 b/s
  228. Count of elements           : 617
  229. Stream size                 : 16.6 KiB (0%)
  230. Language                    : Hungarian
  231. Default                     : No
  232. Forced                      : No
  233.  
  234. Text #14
  235. ID                          : 16
  236. Format                      : UTF-8
  237. Codec ID                    : S_TEXT/UTF8
  238. Codec ID/Info               : UTF-8 Plain Text
  239. Duration                    : 58 min 35 s
  240. Bit rate                    : 40 b/s
  241. Count of elements           : 631
  242. Stream size                 : 17.5 KiB (0%)
  243. Language                    : Indonesian
  244. Default                     : No
  245. Forced                      : No
  246.  
  247. Text #15
  248. ID                          : 17
  249. Format                      : UTF-8
  250. Codec ID                    : S_TEXT/UTF8
  251. Codec ID/Info               : UTF-8 Plain Text
  252. Duration                    : 58 min 35 s
  253. Bit rate                    : 40 b/s
  254. Count of elements           : 600
  255. Stream size                 : 17.2 KiB (0%)
  256. Language                    : Italian
  257. Default                     : No
  258. Forced                      : No
  259.  
  260. Text #16
  261. ID                          : 18
  262. Format                      : UTF-8
  263. Codec ID                    : S_TEXT/UTF8
  264. Codec ID/Info               : UTF-8 Plain Text
  265. Duration                    : 58 min 35 s
  266. Bit rate                    : 40 b/s
  267. Count of elements           : 610
  268. Stream size                 : 17.3 KiB (0%)
  269. Language                    : Japanese
  270. Default                     : No
  271. Forced                      : No
  272.  
  273. Text #17
  274. ID                          : 19
  275. Format                      : UTF-8
  276. Codec ID                    : S_TEXT/UTF8
  277. Codec ID/Info               : UTF-8 Plain Text
  278. Duration                    : 58 min 35 s
  279. Bit rate                    : 52 b/s
  280. Count of elements           : 636
  281. Stream size                 : 22.6 KiB (0%)
  282. Language                    : Korean
  283. Default                     : No
  284. Forced                      : No
  285.  
  286. Text #18
  287. ID                          : 20
  288. Format                      : UTF-8
  289. Codec ID                    : S_TEXT/UTF8
  290. Codec ID/Info               : UTF-8 Plain Text
  291. Duration                    : 58 min 35 s
  292. Bit rate                    : 36 b/s
  293. Count of elements           : 588
  294. Stream size                 : 15.7 KiB (0%)
  295. Language                    : Norwegian Bokmal
  296. Default                     : No
  297. Forced                      : No
  298.  
  299. Text #19
  300. ID                          : 21
  301. Format                      : UTF-8
  302. Codec ID                    : S_TEXT/UTF8
  303. Codec ID/Info               : UTF-8 Plain Text
  304. Duration                    : 58 min 34 s
  305. Bit rate                    : 36 b/s
  306. Count of elements           : 524
  307. Stream size                 : 15.5 KiB (0%)
  308. Language                    : Dutch
  309. Default                     : No
  310. Forced                      : No
  311.  
  312. Text #20
  313. ID                          : 22
  314. Format                      : UTF-8
  315. Codec ID                    : S_TEXT/UTF8
  316. Codec ID/Info               : UTF-8 Plain Text
  317. Duration                    : 58 min 35 s
  318. Bit rate                    : 39 b/s
  319. Count of elements           : 607
  320. Stream size                 : 16.8 KiB (0%)
  321. Language                    : Polish
  322. Default                     : No
  323. Forced                      : No
  324.  
  325. Text #21
  326. ID                          : 23
  327. Format                      : UTF-8
  328. Codec ID                    : S_TEXT/UTF8
  329. Codec ID/Info               : UTF-8 Plain Text
  330. Duration                    : 58 min 35 s
  331. Bit rate                    : 40 b/s
  332. Count of elements           : 588
  333. Stream size                 : 17.5 KiB (0%)
  334. Language                    : Portuguese
  335. Default                     : No
  336. Forced                      : No
  337.  
  338. Text #22
  339. ID                          : 24
  340. Format                      : UTF-8
  341. Codec ID                    : S_TEXT/UTF8
  342. Codec ID/Info               : UTF-8 Plain Text
  343. Duration                    : 58 min 35 s
  344. Bit rate                    : 38 b/s
  345. Count of elements           : 613
  346. Stream size                 : 16.6 KiB (0%)
  347. Title                       : Brazilian
  348. Language                    : Portuguese
  349. Default                     : No
  350. Forced                      : No
  351.  
  352. Text #23
  353. ID                          : 25
  354. Format                      : UTF-8
  355. Codec ID                    : S_TEXT/UTF8
  356. Codec ID/Info               : UTF-8 Plain Text
  357. Duration                    : 58 min 35 s
  358. Bit rate                    : 46 b/s
  359. Count of elements           : 615
  360. Stream size                 : 19.8 KiB (0%)
  361. Language                    : Romanian
  362. Default                     : No
  363. Forced                      : No
  364.  
  365. Text #24
  366. ID                          : 26
  367. Format                      : UTF-8
  368. Codec ID                    : S_TEXT/UTF8
  369. Codec ID/Info               : UTF-8 Plain Text
  370. Duration                    : 58 min 35 s
  371. Bit rate                    : 65 b/s
  372. Count of elements           : 623
  373. Stream size                 : 28.0 KiB (0%)
  374. Language                    : Russian
  375. Default                     : No
  376. Forced                      : No
  377.  
  378. Text #25
  379. ID                          : 27
  380. Format                      : UTF-8
  381. Codec ID                    : S_TEXT/UTF8
  382. Codec ID/Info               : UTF-8 Plain Text
  383. Duration                    : 58 min 34 s
  384. Bit rate                    : 41 b/s
  385. Count of elements           : 569
  386. Stream size                 : 17.7 KiB (0%)
  387. Language                    : Swedish
  388. Default                     : No
  389. Forced                      : No
  390.  
  391. Text #26
  392. ID                          : 28
  393. Format                      : UTF-8
  394. Codec ID                    : S_TEXT/UTF8
  395. Codec ID/Info               : UTF-8 Plain Text
  396. Duration                    : 58 min 35 s
  397. Bit rate                    : 111 b/s
  398. Count of elements           : 633
  399. Stream size                 : 47.8 KiB (0%)
  400. Language                    : Thai
  401. Default                     : No
  402. Forced                      : No
  403.  
  404. Text #27
  405. ID                          : 29
  406. Format                      : UTF-8
  407. Codec ID                    : S_TEXT/UTF8
  408. Codec ID/Info               : UTF-8 Plain Text
  409. Duration                    : 58 min 35 s
  410. Bit rate                    : 40 b/s
  411. Count of elements           : 625
  412. Stream size                 : 17.5 KiB (0%)
  413. Language                    : Turkish
  414. Default                     : No
  415. Forced                      : No
  416.  
  417. Text #28
  418. ID                          : 30
  419. Format                      : UTF-8
  420. Codec ID                    : S_TEXT/UTF8
  421. Codec ID/Info               : UTF-8 Plain Text
  422. Duration                    : 58 min 35 s
  423. Bit rate                    : 61 b/s
  424. Count of elements           : 631
  425. Stream size                 : 26.2 KiB (0%)
  426. Language                    : Vietnamese
  427. Default                     : No
  428. Forced                      : No
  429.  
  430. Text #29
  431. ID                          : 31
  432. Format                      : UTF-8
  433. Codec ID                    : S_TEXT/UTF8
  434. Codec ID/Info               : UTF-8 Plain Text
  435. Duration                    : 58 min 35 s
  436. Bit rate                    : 40 b/s
  437. Count of elements           : 632
  438. Stream size                 : 17.3 KiB (0%)
  439. Title                       : Simplified
  440. Language                    : Chinese
  441. Default                     : No
  442. Forced                      : No
  443.  
  444. Text #30
  445. ID                          : 32
  446. Format                      : UTF-8
  447. Codec ID                    : S_TEXT/UTF8
  448. Codec ID/Info               : UTF-8 Plain Text
  449. Duration                    : 58 min 35 s
  450. Bit rate                    : 40 b/s
  451. Count of elements           : 634
  452. Stream size                 : 17.5 KiB (0%)
  453. Title                       : Traditional
  454. Language                    : Chinese
  455. Default                     : No
  456. Forced                      : No
RAW Paste Data
We use cookies for various purposes including analytics. By continuing to use Pastebin, you agree to our use of cookies as described in the Cookies Policy. OK, I Understand
Top