SHARE
TWEET

I Trapped The Devil WEB-RIP 1080p

dirtyharrys Jun 1st, 2019 79 Never
Not a member of Pastebin yet? Sign Up, it unlocks many cool features!
  1. General
  2. Unique ID                   : 272115093229173650860464707982664244565 (0xCCB775EC4E1818158F5E7D08E22D9D55)
  3. Complete name               : E:\V0VCSVRyYXBwZWRUaGVEZXZpbA.mkv
  4. Format                      : Matroska
  5. Format version              : Version 4
  6. File size                   : 1.69 GiB
  7. Duration                    : 1 h 23 min
  8. Overall bit rate            : 2 882 kb/s
  9. Movie name                  : I Trapped The Devil WEB-RIP / I Trapped The Devil WEB-RIP
  10. Encoded date                : UTC 2019-06-01 08:31:27
  11. Writing application         : mkvmerge v30.1.0 ('Forever And More') 32-bit
  12. Writing library             : libebml v1.3.6 + libmatroska v1.4.9
  13. Copyright                   : Movies HDs 2019
  14. ARTIST                      : HarshLearner
  15.  
  16. Video
  17. ID                          : 1
  18. Format                      : AVC
  19. Format/Info                 : Advanced Video Codec
  20. Format profile              : High@L4.1
  21. Format settings             : CABAC / 4 Ref Frames
  22. Format settings, CABAC      : Yes
  23. Format settings, ReFrames   : 4 frames
  24. Codec ID                    : V_MPEG4/ISO/AVC
  25. Duration                    : 1 h 23 min
  26. Bit rate                    : 2 500 kb/s
  27. Width                       : 1 920 pixels
  28. Height                      : 800 pixels
  29. Display aspect ratio        : 2.40:1
  30. Frame rate mode             : Constant
  31. Frame rate                  : 23.976 (23976/1000) FPS
  32. Color space                 : YUV
  33. Chroma subsampling          : 4:2:0
  34. Bit depth                   : 8 bits
  35. Scan type                   : Progressive
  36. Bits/(Pixel*Frame)          : 0.068
  37. Stream size                 : 1.46 GiB (87%)
  38. Title                       : I Trapped The Devil
  39. Writing library             : x264 core 152 r2851M ba24899
  40. Default                     : Yes
  41. Forced                      : No
  42.  
  43. Audio
  44. ID                          : 2
  45. Format                      : AC-3
  46. Format/Info                 : Audio Coding 3
  47. Commercial name             : Dolby Digital
  48. Codec ID                    : A_AC3
  49. Duration                    : 1 h 23 min
  50. Bit rate mode               : Constant
  51. Bit rate                    : 384 kb/s
  52. Channel(s)                  : 6 channels
  53. Channel layout              : L R C LFE Ls Rs
  54. Sampling rate               : 48.0 kHz
  55. Frame rate                  : 31.250 FPS (1536 SPF)
  56. Bit depth                   : 16 bits
  57. Compression mode            : Lossy
  58. Stream size                 : 230 MiB (13%)
  59. Language                    : English
  60. Service kind                : Complete Main
  61. Default                     : Yes
  62. Forced                      : No
  63.  
  64. Text #1
  65. ID                          : 3
  66. Format                      : UTF-8
  67. Codec ID                    : S_TEXT/UTF8
  68. Codec ID/Info               : UTF-8 Plain Text
  69. Duration                    : 1 h 23 min
  70. Bit rate                    : 26 b/s
  71. Count of elements           : 667
  72. Stream size                 : 15.9 KiB (0%)
  73. Language                    : English
  74. Default                     : No
  75. Forced                      : No
  76.  
  77. Text #2
  78. ID                          : 4
  79. Format                      : UTF-8
  80. Codec ID                    : S_TEXT/UTF8
  81. Codec ID/Info               : UTF-8 Plain Text
  82. Duration                    : 1 h 19 min
  83. Bit rate                    : 22 b/s
  84. Count of elements           : 470
  85. Stream size                 : 13.3 KiB (0%)
  86. Language                    : Spanish
  87. Default                     : Yes
  88. Forced                      : Yes
RAW Paste Data
We use cookies for various purposes including analytics. By continuing to use Pastebin, you agree to our use of cookies as described in the Cookies Policy. OK, I Understand
 
Top