SHARE
TWEET

Untitled

a guest Jun 29th, 2017 41 Never
Not a member of Pastebin yet? Sign Up, it unlocks many cool features!
  1. ************************************************************************************
  2. ***** Task 1 of 1
  3. ***** Command reads:
  4. ***** c:\ffmpeg -color_range 2 -i "D:\Photography\demo_out.avi" -c:v libx264 -preset medium -crf 23
  5. -pix_fmt yuv420p -c:a aac -vbr 4 -s 1920x1080 "D:\Photography\demo_out_264_medium.mp4"
  6. ***** Command's output follows:
  7. ffmpeg version N-85469-gf1d80bc Copyright (c) 2000-2017 the FFmpeg developers
  8.   built with gcc 6.3.0 (GCC)
  9.   configuration: --enable-gpl --enable-version3 --enable-cuda --enable-cuvid --enable-d3d11va --enab
  10. le-dxva2 --enable-libmfx --enable-nvenc --enable-avisynth --enable-bzlib --enable-fontconfig --enabl
  11. e-frei0r --enable-gnutls --enable-iconv --enable-libass --enable-libbluray --enable-libbs2b --enable
  12. -libcaca --enable-libfreetype --enable-libgme --enable-libgsm --enable-libilbc --enable-libmodplug -
  13. -enable-libmp3lame --enable-libopencore-amrnb --enable-libopencore-amrwb --enable-libopenh264 --enab
  14. le-libopenjpeg --enable-libopus --enable-librtmp --enable-libsnappy --enable-libsoxr --enable-libspe
  15. ex --enable-libtheora --enable-libtwolame --enable-libvidstab --enable-libvo-amrwbenc --enable-libvo
  16. rbis --enable-libvpx --enable-libwavpack --enable-libwebp --enable-libx264 --enable-libx265 --enable
  17. -libxavs --enable-libxvid --enable-libzimg --enable-lzma --enable-zlib
  18.   libavutil      55. 61.100 / 55. 61.100
  19.   libavcodec     57. 92.100 / 57. 92.100
  20.   libavformat    57. 72.100 / 57. 72.100
  21.   libavdevice    57.  7.100 / 57.  7.100
  22.   libavfilter     6. 84.101 /  6. 84.101
  23.   libswscale      4.  7.100 /  4.  7.100
  24.   libswresample   2.  8.100 /  2.  8.100
  25.   libpostproc    54.  6.100 / 54.  6.100
  26. [avi @ 0000000000388340] non-interleaved AVI
  27. [avi @ 0000000000388340] Stream #0: not enough frames to estimate rate; consider increasing probesiz
  28. e
  29. Guessed Channel Layout for Input Stream #0.1 : stereo
  30. Input #0, avi, from 'D:\Photography\demo_out.avi':
  31.   Metadata:
  32.     date            : 2017-06-29T18:49:24.00619+01:00
  33.     encoder         : Adobe Premiere Pro 5.0
  34.   Duration: 00:01:01.48, start: 0.000000, bitrate: 1109457 kb/s
  35.     Stream #0:0: Video: v210 (v210 / 0x30313276), yuv422p10le(pc), 1920x1080, 1106640 kb/s, 25 fps,
  36. 25 tbr, 25 tbn, 25 tbc
  37.     Stream #0:1: Audio: pcm_s16le ([1][0][0][0] / 0x0001), 96000 Hz, stereo, s16, 3072 kb/s
  38. Codec AVOption vbr (Variable bit rate mode) specified for output file #0 (D:\Photography\demo_out_26
  39. 4_medium.mp4) has not been used for any stream. The most likely reason is either wrong type (e.g. a
  40. video option with no video streams) or that it is a private option of some encoder which was not act
  41. ually used for any stream.
  42. File 'D:\Photography\demo_out_264_medium.mp4' already exists. Overwrite ? [y/N] y
  43. Stream mapping:
  44.   Stream #0:0 -> #0:0 (v210 (native) -> h264 (libx264))
  45.   Stream #0:1 -> #0:1 (pcm_s16le (native) -> aac (native))
  46. Press [q] to stop, [?] for help
  47. [libx264 @ 000000000059ea60] using cpu capabilities: MMX2 SSE2Fast SSSE3 SSE4.2
  48. [libx264 @ 000000000059ea60] profile High, level 4.0
  49. [libx264 @ 000000000059ea60] 264 - core 148 r2762 90a61ec - H.264/MPEG-4 AVC codec - Copyleft 2003-2
  50. 017 - http://www.videolan.org/x264.html - options: cabac=1 ref=3 deblock=1:0:0 analyse=0x3:0x113 me=
  51. hex subme=7 psy=1 psy_rd=1.00:0.00 mixed_ref=1 me_range=16 chroma_me=1 trellis=1 8x8dct=1 cqm=0 dead
  52. zone=21,11 fast_pskip=1 chroma_qp_offset=-2 threads=12 lookahead_threads=2 sliced_threads=0 nr=0 dec
  53. imate=1 interlaced=0 bluray_compat=0 constrained_intra=0 bframes=3 b_pyramid=2 b_adapt=1 b_bias=0 di
  54. rect=1 weightb=1 open_gop=0 weightp=2 keyint=250 keyint_min=25 scenecut=40 intra_refresh=0 rc_lookah
  55. ead=40 rc=crf mbtree=1 crf=23.0 qcomp=0.60 qpmin=0 qpmax=69 qpstep=4 ip_ratio=1.40 aq=1:1.00
  56. Output #0, mp4, to 'D:\Photography\demo_out_264_medium.mp4':
  57.   Metadata:
  58.     date            : 2017-06-29T18:49:24.00619+01:00
  59.     encoder         : Lavf57.72.100
  60.     Stream #0:0: Video: h264 (libx264) ([33][0][0][0] / 0x0021), yuv420p(progressive), 1920x1080, q=
  61. -1--1, 25 fps, 12800 tbn, 25 tbc
  62.     Metadata:
  63.       encoder         : Lavc57.92.100 libx264
  64.     Side data:
  65.       cpb: bitrate max/min/avg: 0/0/0 buffer size: 0 vbv_delay: -1
  66.     Stream #0:1: Audio: aac (LC) ([64][0][0][0] / 0x0040), 96000 Hz, stereo, fltp, 128 kb/s
  67.     Metadata:
  68.       encoder         : Lavc57.92.100 aac
  69. frame= 1537 fps= 17 q=-1.0 Lsize=   10922kB time=00:01:01.48 bitrate=1455.2kbits/s speed=0.682x
  70. video:9900kB audio:959kB subtitle:0kB other streams:0kB global headers:0kB muxing overhead: 0.578363
  71. %
  72. [libx264 @ 000000000059ea60] frame I:9     Avg QP:16.10  size: 63373
  73. [libx264 @ 000000000059ea60] frame P:391   Avg QP:20.64  size: 13105
  74. [libx264 @ 000000000059ea60] frame B:1137  Avg QP:22.70  size:  3907
  75. [libx264 @ 000000000059ea60] consecutive B-frames:  1.2%  0.1%  1.4% 97.3%
  76. [libx264 @ 000000000059ea60] mb I  I16..4: 40.7% 47.9% 11.4%
  77. [libx264 @ 000000000059ea60] mb P  I16..4:  1.8%  4.6%  0.4%  P16..4: 22.2%  4.6%  3.2%  0.0%  0.0%
  78.    skip:63.3%
  79. [libx264 @ 000000000059ea60] mb B  I16..4:  0.2%  0.3%  0.0%  B16..8: 23.3%  1.0%  0.1%  direct: 0.5
  80. %  skip:74.7%  L0:42.4% L1:55.4% BI: 2.2%
  81. [libx264 @ 000000000059ea60] 8x8 transform intra:61.9% inter:90.9%
  82. [libx264 @ 000000000059ea60] coded y,uvDC,uvAC intra: 35.0% 46.4% 15.8% inter: 3.9% 5.3% 0.1%
  83. [libx264 @ 000000000059ea60] i16 v,h,dc,p: 50% 26%  6% 18%
  84. [libx264 @ 000000000059ea60] i8 v,h,dc,ddl,ddr,vr,hd,vl,hu: 25% 14% 26%  5%  6%  7%  5%  6%  4%
  85. [libx264 @ 000000000059ea60] i4 v,h,dc,ddl,ddr,vr,hd,vl,hu: 29% 19% 12%  6% 10%  9%  7%  5%  4%
  86. [libx264 @ 000000000059ea60] i8c dc,h,v,p: 60% 18% 18%  3%
  87. [libx264 @ 000000000059ea60] Weighted P-Frames: Y:4.3% UV:3.6%
  88. [libx264 @ 000000000059ea60] ref P L0: 66.2% 12.0% 16.1%  5.7%  0.0%
  89. [libx264 @ 000000000059ea60] ref B L0: 91.5%  6.9%  1.6%
  90. [libx264 @ 000000000059ea60] ref B L1: 96.8%  3.2%
  91. [libx264 @ 000000000059ea60] kb/s:1319.05
  92. [aac @ 00000000005a0a00] Qavg: 1016.842
  93.  
  94. D:\Photography>
RAW Paste Data
We use cookies for various purposes including analytics. By continuing to use Pastebin, you agree to our use of cookies as described in the Cookies Policy. OK, I Understand
 
Top