Guest User

Secretary.2002.MULTi.1080p.BluRay.x264-SALEM

a guest
May 13th, 2019
42
Never
Not a member of Pastebin yet? Sign Up, it unlocks many cool features!
  1. General
  2. Unique ID                                : 205736145063987283682284134580340285475 (0x9AC7571A1C178FFAA4D9CCA557DE6023)
  3. Complete name                            : Secretary.2002.MULTi.1080p.BluRay.x264-SALEM.mkv
  4. Format                                   : Matroska
  5. Format version                           : Version 4
  6. File size                                : 11.6 GiB
  7. Duration                                 : 1 h 51 min
  8. Overall bit rate                         : 14.9 Mb/s
  9. Encoded date                             : UTC 2013-09-30 08:07:53
  10. Writing application                      : mkvmerge v6.4.1 ('Omega Point') built on Sep 16 2013 22:05:10
  11. Writing library                          : libebml v1.3.0 + libmatroska v1.4.1
  12.  
  13. Video
  14. ID                                       : 1
  15. Format                                   : AVC
  16. Format/Info                              : Advanced Video Codec
  17. Format profile                           : High@L4.1
  18. Format settings                          : CABAC / 4 Ref Frames
  19. Format settings, CABAC                   : Yes
  20. Format settings, Reference frames        : 4 frames
  21. Codec ID                                 : V_MPEG4/ISO/AVC
  22. Duration                                 : 1 h 51 min
  23. Bit rate                                 : 13.0 Mb/s
  24. Width                                    : 1 920 pixels
  25. Height                                   : 1 080 pixels
  26. Display aspect ratio                     : 16:9
  27. Frame rate mode                          : Constant
  28. Frame rate                               : 23.976 FPS
  29. Color space                              : YUV
  30. Chroma subsampling                       : 4:2:0
  31. Bit depth                                : 8 bits
  32. Scan type                                : Progressive
  33. Bits/(Pixel*Frame)                       : 0.261
  34. Stream size                              : 9.84 GiB (85%)
  35. Title                                    : Secretary.2002.MULTi.1080p.BluRay.x264-SALEM
  36. Writing library                          : x264 core 98 r1649 c54c47d
  37. Encoding settings                        : cabac=1 / ref=4 / deblock=1:-3:-3 / analyse=0x3:0x113 / me=tesa / subme=10 / psy=1 / psy_rd=0.80:0.00 / mixed_ref=1 / me_range=64 / chroma_me=1 / trellis=2 / 8x8dct=1 / cqm=0 / deadzone=21,11 / fast_pskip=0 / chroma_qp_offset=-4 / threads=18 / sliced_threads=0 / nr=0 / decimate=0 / interlaced=0 / constrained_intra=0 / bframes=8 / b_pyramid=2 / b_adapt=2 / b_bias=0 / direct=3 / weightb=1 / weightp=2 / keyint=250 / keyint_min=25 / scenecut=40 / intra_refresh=0 / rc_lookahead=48 / rc=2pass / mbtree=1 / bitrate=13000 / ratetol=1.0 / qcomp=0.60 / qpmin=10 / qpmax=51 / qpstep=4 / cplxblur=20.0 / qblur=0.5 / ip_ratio=1.40 / aq=1:0.90
  38. Default                                  : Yes
  39. Forced                                   : Yes
  40.  
  41. Audio #1
  42. ID                                       : 2
  43. Format                                   : DTS
  44. Format/Info                              : Digital Theater Systems
  45. Codec ID                                 : A_DTS
  46. Duration                                 : 1 h 51 min
  47. Bit rate mode                            : Constant
  48. Bit rate                                 : 1 509 kb/s
  49. Channel(s)                               : 6 channels
  50. Channel layout                           : C L R Ls Rs LFE
  51. Sampling rate                            : 48.0 kHz
  52. Frame rate                               : 93.750 FPS (512 SPF)
  53. Bit depth                                : 24 bits
  54. Compression mode                         : Lossy
  55. Stream size                              : 1.17 GiB (10%)
  56. Title                                    : DTS 5.1 @1509 Kbps
  57. Language                                 : English
  58. Default                                  : Yes
  59. Forced                                   : No
  60.  
  61. Audio #2
  62. ID                                       : 3
  63. Format                                   : AC-3
  64. Format/Info                              : Audio Coding 3
  65. Commercial name                          : Dolby Digital
  66. Codec ID                                 : A_AC3
  67. Duration                                 : 1 h 51 min
  68. Bit rate mode                            : Constant
  69. Bit rate                                 : 448 kb/s
  70. Channel(s)                               : 6 channels
  71. Channel layout                           : L R C LFE Ls Rs
  72. Sampling rate                            : 48.0 kHz
  73. Frame rate                               : 31.250 FPS (1536 SPF)
  74. Bit depth                                : 16 bits
  75. Compression mode                         : Lossy
  76. Delay relative to video                  : 1 s 700 ms
  77. Stream size                              : 356 MiB (3%)
  78. Title                                    : AC3 5.1 @448 Kbps
  79. Language                                 : French
  80. Service kind                             : Complete Main
  81. Default                                  : No
  82. Forced                                   : No
  83.  
  84. Text #1
  85. ID                                       : 4
  86. Format                                   : UTF-8
  87. Codec ID                                 : S_TEXT/UTF8
  88. Codec ID/Info                            : UTF-8 Plain Text
  89. Title                                    : Full
  90. Language                                 : French
  91. Default                                  : Yes
  92. Forced                                   : No
  93.  
  94. Text #2
  95. ID                                       : 5
  96. Format                                   : UTF-8
  97. Codec ID                                 : S_TEXT/UTF8
  98. Codec ID/Info                            : UTF-8 Plain Text
  99. Title                                    : Full
  100. Language                                 : English
  101. Default                                  : No
  102. Forced                                   : No
RAW Paste Data