SHARE
TWEET

Untitled

a guest Mar 20th, 2020 91 Never
Not a member of Pastebin yet? Sign Up, it unlocks many cool features!
  1. Format : Matroska
  2. Format version : Version 2
  3. File size : 3.42 GiB
  4. Duration : 1 h 32 min
  5. Overall bit rate : 5 315 kb/s
  6. Encoded date : UTC 2020-03-20 04:42:03
  7. Writing application : mkvmerge v5.3.0 ('I could have danced') built on Feb 9 2012 10:38:07
  8. Writing library : libebml v1.2.3 + libmatroska v1.3.0
  9. Cover : Yes
  10. Attachments : cover.png
  11.  
  12. Video
  13. ID : 1
  14. Format : AVC
  15. Format/Info : Advanced Video Codec
  16. Format profile : High@L4.1
  17. Format settings : CABAC / 12 Ref Frames
  18. Format settings, CABAC : Yes
  19. Format settings, Reference frames : 12 frames
  20. Codec ID : V_MPEG4/ISO/AVC
  21. Duration : 1 h 32 min
  22. Bit rate : 4 500 kb/s
  23. Width : 1 280 pixels
  24. Height : 536 pixels
  25. Display aspect ratio : 2.40:1
  26. Frame rate mode : Constant
  27. Frame rate : 23.976 (24000/1001) FPS
  28. Color space : YUV
  29. Chroma subsampling : 4:2:0
  30. Bit depth : 8 bits
  31. Scan type : Progressive
  32. Bits/(Pixel*Frame) : 0.274
  33. Stream size : 2.82 GiB (82%)
  34. Writing library : x264 core 157 r2945 72db437
  35. Encoding settings : cabac=1 / ref=12 / deblock=1:-3:-3 / analyse=0x3:0x133 / me=umh / subme=11 / psy=1 / psy_rd=1.00:0.00 / mixed_ref=1 / me_range=32 / chroma_me=1 / trellis=2 / 8x8dct=1 / cqm=0 / deadzone=21,11 / fast_pskip=0 / chroma_qp_offset=-2 / threads=12 / lookahead_threads=3 / sliced_threads=0 / nr=0 / decimate=0 / interlaced=0 / bluray_compat=0 / constrained_intra=0 / bframes=12 / b_pyramid=2 / b_adapt=2 / b_bias=0 / direct=3 / weightb=1 / open_gop=0 / weightp=2 / keyint=240 / keyint_min=23 / scenecut=40 / intra_refresh=0 / rc=2pass / mbtree=0 / bitrate=4500 / ratetol=1.0 / qcomp=0.65 / qpmin=0 / qpmax=69 / qpstep=4 / cplxblur=20.0 / qblur=0.5 / ip_ratio=1.30 / pb_ratio=1.26 / aq=3:0.90
  36. Language : English
  37. Default : Yes
  38. Forced : No
  39. Color range : Limited
  40. Color primaries : BT.709
  41. Transfer characteristics : BT.709
  42. Matrix coefficients : BT.709
  43.  
  44. Audio #1
  45. ID : 2
  46. Format : AC-3
  47. Format/Info : Audio Coding 3
  48. Commercial name : Dolby Digital
  49. Codec ID : A_AC3
  50. Duration : 1 h 32 min
  51. Bit rate mode : Constant
  52. Bit rate : 384 kb/s
  53. Channel(s) : 6 channels
  54. Channel layout : L R C LFE Ls Rs
  55. Sampling rate : 48.0 kHz
  56. Frame rate : 31.250 FPS (1536 SPF)
  57. Bit depth : 16 bits
  58. Compression mode : Lossy
  59. Stream size : 253 MiB (7%)
  60. Title : Dub
  61. Language : Russian
  62. Service kind : Complete Main
  63. Default : Yes
  64. Forced : No
  65.  
  66. Audio #2
  67. ID : 3
  68. Format : AC-3
  69. Format/Info : Audio Coding 3
  70. Commercial name : Dolby Digital
  71. Codec ID : A_AC3
  72. Duration : 1 h 32 min
  73. Bit rate mode : Constant
  74. Bit rate : 448 kb/s
  75. Channel(s) : 6 channels
  76. Channel layout : L R C LFE Ls Rs
  77. Sampling rate : 48.0 kHz
  78. Frame rate : 31.250 FPS (1536 SPF)
  79. Bit depth : 16 bits
  80. Compression mode : Lossy
  81. Stream size : 295 MiB (8%)
  82. Title : Original
  83. Language : English
  84. Service kind : Complete Main
  85. Default : No
  86. Forced : No
  87.  
  88. Text #1
  89. ID : 4
  90. Format : UTF-8
  91. Codec ID : S_TEXT/UTF8
  92. Codec ID/Info : UTF-8 Plain Text
  93. Title : Forced
  94. Language : Russian
  95. Default : Yes
  96. Forced : Yes
  97.  
  98. Text #2
  99. ID : 5
  100. Format : UTF-8
  101. Codec ID : S_TEXT/UTF8
  102. Codec ID/Info : UTF-8 Plain Text
  103. Title : Full
  104. Language : Russian
  105. Default : No
  106. Forced : No
  107.  
  108. Text #3
  109. ID : 6
  110. Format : UTF-8
  111. Codec ID : S_TEXT/UTF8
  112. Codec ID/Info : UTF-8 Plain Text
  113. Title : full
  114. Language : English
  115. Default : No
  116. Forced : No
  117.  
  118. Menu
  119. 00:00:00.000 : en:Chapter 01
  120. 00:06:54.247 : en:Chapter 02
  121. 00:11:31.691 : en:Chapter 03
  122. 00:13:54.208 : en:Chapter 04
  123. 00:18:01.080 : en:Chapter 05
  124. 00:23:23.652 : en:Chapter 06
  125. 00:28:21.116 : en:Chapter 07
  126. 00:33:51.487 : en:Chapter 08
  127. 00:37:07.516 : en:Chapter 09
  128. 00:41:20.436 : en:Chapter 10
  129. 00:47:05.656 : en:Chapter 11
  130. 00:53:29.539 : en:Chapter 12
  131. 00:58:13.156 : en:Chapter 13
  132. 01:03:12.663 : en:Chapter 14
  133. 01:06:28.442 : en:Chapter 15
  134. 01:10:02.573 : en:Chapter 16
  135. 01:14:34.052 : en:Chapter 17
  136. 01:19:08.034 : en:Chapter 18
  137. 01:21:26.506 : en:Chapter 19
  138. 01:26:14.794 : en:Chapter 20
RAW Paste Data
We use cookies for various purposes including analytics. By continuing to use Pastebin, you agree to our use of cookies as described in the Cookies Policy. OK, I Understand
Top