SHARE
TWEET

Pet Sematary HD-RIP 720p

dirtyharrys May 9th, 2019 169 Never
Not a member of Pastebin yet? Sign Up, it unlocks many cool features!
  1. General
  2. Unique ID                   : 280015544155759514193037565389198068943 (0xD2A9083A37FA8609D1C13486BDA40CCF)
  3. Complete name               : E:\SERQZXRTZW1hdGFyeQ.mkv
  4. Format                      : Matroska
  5. Format version              : Version 4
  6. File size                   : 1.54 GiB
  7. Duration                    : 1 h 39 min
  8. Overall bit rate            : 2 232 kb/s
  9. Movie name                  : Pet Sematary HD-RIP / Pet Sematary HD-RIP
  10. Encoded date                : UTC 2019-05-09 06:24:48
  11. Writing application         : mkvmerge v30.1.0 ('Forever And More') 32-bit
  12. Writing library             : libebml v1.3.6 + libmatroska v1.4.9
  13. Copyright                   : Movies HDs 2019
  14. ARTIST                      : HarshLearner
  15.  
  16. Video
  17. ID                          : 1
  18. Format                      : AVC
  19. Format/Info                 : Advanced Video Codec
  20. Format profile              : Main@L4
  21. Format settings             : CABAC / 4 Ref Frames
  22. Format settings, CABAC      : Yes
  23. Format settings, ReFrames   : 4 frames
  24. Codec ID                    : V_MPEG4/ISO/AVC
  25. Duration                    : 1 h 39 min
  26. Bit rate                    : 2 128 kb/s
  27. Width                       : 1 920 pixels
  28. Height                      : 800 pixels
  29. Display aspect ratio        : 2.40:1
  30. Frame rate mode             : Constant
  31. Frame rate                  : 29.970 (30000/1001) FPS
  32. Color space                 : YUV
  33. Chroma subsampling          : 4:2:0
  34. Bit depth                   : 8 bits
  35. Scan type                   : Progressive
  36. Bits/(Pixel*Frame)          : 0.046
  37. Stream size                 : 1.45 GiB (94%)
  38. Title                       : Pet Sematary
  39. Writing library             : x264 core 148 r2708 86b7198
  40. Default                     : Yes
  41. Forced                      : No
  42. Color range                 : Limited
  43. Color primaries             : BT.709
  44. Transfer characteristics    : BT.709
  45. Matrix coefficients         : BT.709
  46.  
  47. Audio
  48. ID                          : 2
  49. Format                      : MPEG Audio
  50. Format version              : Version 1
  51. Format profile              : Layer 3
  52. Format settings             : Joint stereo / MS Stereo
  53. Codec ID                    : A_MPEG/L3
  54. Codec ID/Hint               : MP3
  55. Duration                    : 1 h 39 min
  56. Bit rate mode               : Constant
  57. Bit rate                    : 128 kb/s
  58. Channel(s)                  : 2 channels
  59. Sampling rate               : 48.0 kHz
  60. Frame rate                  : 41.667 FPS (1152 SPF)
  61. Compression mode            : Lossy
  62. Delay relative to video     : 107 ms
  63. Stream size                 : 90.7 MiB (6%)
  64. Language                    : English
  65. Default                     : Yes
  66. Forced                      : No
  67.  
  68. Text #1
  69. ID                          : 3
  70. Format                      : SSA
  71. Codec ID                    : S_TEXT/SSA
  72. Codec ID/Info               : Sub Station Alpha
  73. Duration                    : 1 h 32 min
  74. Bit rate                    : 69 b/s
  75. Count of elements           : 755
  76. Compression mode            : Lossless
  77. Stream size                 : 47.2 KiB (0%)
  78. Language                    : Spanish
  79. Default                     : Yes
  80. Forced                      : Yes
  81.  
  82. Text #2
  83. ID                          : 4
  84. Format                      : UTF-8
  85. Codec ID                    : S_TEXT/UTF8
  86. Codec ID/Info               : UTF-8 Plain Text
  87. Duration                    : 1 h 32 min
  88. Bit rate                    : 35 b/s
  89. Count of elements           : 755
  90. Stream size                 : 24.3 KiB (0%)
  91. Language                    : Spanish
  92. Default                     : No
  93. Forced                      : Yes
RAW Paste Data
We use cookies for various purposes including analytics. By continuing to use Pastebin, you agree to our use of cookies as described in the Cookies Policy. OK, I Understand
 
Top