SHARE
TWEET

The.Man.Without.a.Face.1993.1080p.BluRay.X264-AMIABLE

a guest Jun 13th, 2019 14 Never
Not a member of Pastebin yet? Sign Up, it unlocks many cool features!
  1. General
  2. Unique ID                                : 171404341796826212133113538011664285411 (0x80F34683A8933AFC964DFA04C334FEE3)
  3. Complete name                            : The.Man.Without.a.Face.1993.1080p.BluRay.X264-AMIABLE.mkv
  4. Format                                   : Matroska
  5. Format version                           : Version 2
  6. File size                                : 7.65 GiB
  7. Duration                                 : 1 h 54 min
  8. Overall bit rate                         : 9 546 kb/s
  9. Encoded date                             : UTC 2012-05-21 06:55:58
  10. Writing application                      : mkvmerge v5.5.0 ('Healer') built on Apr  6 2012 21:43:24
  11. Writing library                          : libebml v1.2.3 + libmatroska v1.3.0
  12.  
  13. Video
  14. ID                                       : 1
  15. Format                                   : AVC
  16. Format/Info                              : Advanced Video Codec
  17. Format profile                           : High@L4.1
  18. Format settings                          : CABAC / 4 Ref Frames
  19. Format settings, CABAC                   : Yes
  20. Format settings, Reference frames        : 4 frames
  21. Codec ID                                 : V_MPEG4/ISO/AVC
  22. Duration                                 : 1 h 54 min
  23. Bit rate                                 : 9 325 kb/s
  24. Width                                    : 1 920 pixels
  25. Height                                   : 1 080 pixels
  26. Display aspect ratio                     : 16:9
  27. Frame rate mode                          : Constant
  28. Frame rate                               : 24.000 FPS
  29. Color space                              : YUV
  30. Chroma subsampling                       : 4:2:0
  31. Bit depth                                : 8 bits
  32. Scan type                                : Progressive
  33. Bits/(Pixel*Frame)                       : 0.187
  34. Stream size                              : 7.32 GiB (96%)
  35. Writing library                          : x264 core 124 r2197 69a0443
  36. Encoding settings                        : cabac=1 / ref=4 / deblock=1:0:0 / analyse=0x3:0x113 / me=umh / subme=8 / psy=1 / psy_rd=1.00:0.00 / mixed_ref=1 / me_range=16 / chroma_me=1 / trellis=1 / 8x8dct=1 / cqm=0 / deadzone=21,11 / fast_pskip=1 / chroma_qp_offset=-2 / threads=12 / sliced_threads=0 / nr=0 / decimate=1 / interlaced=0 / bluray_compat=0 / constrained_intra=0 / bframes=3 / b_pyramid=2 / b_adapt=2 / b_bias=0 / direct=3 / weightb=1 / open_gop=0 / weightp=2 / keyint=240 / keyint_min=24 / scenecut=40 / intra_refresh=0 / rc_lookahead=50 / rc=2pass / mbtree=1 / bitrate=9325 / ratetol=1.0 / qcomp=0.60 / qpmin=0 / qpmax=69 / qpstep=4 / cplxblur=20.0 / qblur=0.5 / ip_ratio=1.40 / aq=1:1.00
  37. Language                                 : English
  38. Default                                  : Yes
  39. Forced                                   : No
  40.  
  41. Audio
  42. ID                                       : 2
  43. Format                                   : AC-3
  44. Format/Info                              : Audio Coding 3
  45. Commercial name                          : Dolby Digital
  46. Codec ID                                 : A_AC3
  47. Duration                                 : 1 h 54 min
  48. Bit rate mode                            : Constant
  49. Bit rate                                 : 224 kb/s
  50. Channel(s)                               : 2 channels
  51. Channel layout                           : L R
  52. Sampling rate                            : 48.0 kHz
  53. Frame rate                               : 31.250 FPS (1536 SPF)
  54. Bit depth                                : 16 bits
  55. Compression mode                         : Lossy
  56. Stream size                              : 184 MiB (2%)
  57. Language                                 : English
  58. Service kind                             : Complete Main
  59. Default                                  : Yes
  60. Forced                                   : No
  61.  
  62. Menu
  63. 00:00:00.000                             : en:00:00:00.000
  64. 00:11:59.458                             : en:00:11:59.458
  65. 00:24:51.708                             : en:00:24:51.708
  66. 00:42:09.875                             : en:00:42:09.875
  67. 00:54:38.042                             : en:00:54:38.042
  68. 01:08:15.667                             : en:01:08:15.667
  69. 01:22:40.000                             : en:01:22:40.000
  70. 01:38:40.333                             : en:01:38:40.333
RAW Paste Data
We use cookies for various purposes including analytics. By continuing to use Pastebin, you agree to our use of cookies as described in the Cookies Policy. OK, I Understand
 
Top