Guest User

E01

a guest
Feb 19th, 2018
6,857
Never
Not a member of Pastebin yet? Sign Up, it unlocks many cool features!
  1. General
  2. Unique ID : 48861986890830862985552875177848429208 (0x24C279F35A837B3F2C95E899414D5A98)
  3. Complete name : [Reaktor] JoJo's Bizarre Adventure - E01 [1080p][x265][10-bit][Dual-Audio].mkv
  4. Format : Matroska
  5. Format version : Version 4 / Version 2
  6. File size : 428 MiB
  7. Duration : 23 min 42 s
  8. Overall bit rate : 2 524 kb/s
  9. Movie name : [Reaktor] JoJo's Bizarre Adventure - E01
  10. Encoded date : UTC 2018-02-13T22:18:18Z
  11. Writing application : HandBrake 1.0.7 2017040900
  12. Writing library : Lavf57.7.2
  13.  
  14. Video
  15. ID : 1
  16. Format : HEVC
  17. Format/Info : High Efficiency Video Coding
  18. Format profile : Main 10@L4@Main
  19. Codec ID : V_MPEGH/ISO/HEVC
  20. Duration : 23 min 42 s
  21. Bit rate : 2 090 kb/s
  22. Width : 1 920 pixels
  23. Height : 1 080 pixels
  24. Display aspect ratio : 16:9
  25. Frame rate mode : Constant
  26. Frame rate : 23.976 (24000/1001) FPS
  27. Color space : YUV
  28. Chroma subsampling : 4:2:0
  29. Bit depth : 10 bits
  30. Bits/(Pixel*Frame) : 0.042
  31. Stream size : 354 MiB (83%)
  32. Writing library : x265 2.3:[Windows][GCC 5.3.1][64 bit] 10bit
  33. Encoding settings : cpuid=1173503 / frame-threads=2 / numa-pools=4 / wpp / no-pmode / no-pme / no-psnr / no-ssim / log-level=2 / input-csp=1 / input-res=1920x1080 / interlace=0 / total-frames=0 / level-idc=0 / high-tier=1 / uhd-bd=0 / ref=3 / no-allow-non-conformance / no-repeat-headers / annexb / no-aud / no-hrd / info / hash=0 / no-temporal-layers / open-gop / min-keyint=24 / keyint=240 / bframes=4 / b-adapt=0 / b-pyramid / bframe-bias=0 / rc-lookahead=15 / lookahead-slices=6 / scenecut=40 / no-intra-refresh / ctu=64 / min-cu-size=8 / no-rect / no-amp / max-tu-size=32 / tu-inter-depth=1 / tu-intra-depth=1 / limit-tu=0 / rdoq-level=0 / dynamic-rd=0.00 / signhide / no-tskip / nr-intra=0 / nr-inter=0 / no-constrained-intra / strong-intra-smoothing / max-merge=2 / limit-refs=3 / no-limit-modes / me=1 / subme=2 / merange=57 / temporal-mvp / weightp / no-weightb / no-analyze-src-pics / deblock=0:0 / sao / no-sao-non-deblock / rd=2 / no-early-skip / rskip / fast-intra / no-tskip-fast / no-cu-lossless / no-b-intra / rdpenalty=0 / psy-rd=2.00 / psy-rdoq=0.00 / no-rd-refine / analysis-mode=0 / no-lossless / cbqpoffs=0 / crqpoffs=0 / rc=crf / crf=20.0 / qcomp=0.60 / qpstep=4 / stats-write=0 / stats-read=0 / ipratio=1.40 / pbratio=1.30 / aq-mode=1 / aq-strength=1.00 / cutree / zone-count=0 / no-strict-cbr / qg-size=32 / no-rc-grain / qpmax=69 / qpmin=0 / sar=1 / overscan=0 / videoformat=5 / range=0 / colorprim=1 / transfer=1 / colormatrix=1 / chromaloc=0 / display-window=0 / max-cll=0,0 / min-luma=0 / max-luma=1023 / log2-max-poc-lsb=8 / vui-timing-info / vui-hrd-info / slices=1 / opt-qp-pps / opt-ref-list-length-pps / no-multi-pass-opt-rps / scenecut-bias=0.05 / no-opt-cu-delta-qp / no-aq-motion / no-hdr
  34. Default : Yes
  35. Forced : No
  36. Color range : Limited
  37. Color primaries : BT.709
  38. Transfer characteristics : BT.709
  39. Matrix coefficients : BT.709
  40.  
  41. Audio #1
  42. ID : 2
  43. Format : AC-3
  44. Format/Info : Audio Coding 3
  45. Codec ID : A_AC3
  46. Duration : 23 min 42 s
  47. Bit rate mode : Constant
  48. Bit rate : 192 kb/s
  49. Channel(s) : 2 channels
  50. Channel positions : Front: L R
  51. Sampling rate : 48.0 kHz
  52. Frame rate : 31.250 FPS (1536 SPF)
  53. Bit depth : 16 bits
  54. Compression mode : Lossy
  55. Delay relative to video : -5 ms
  56. Stream size : 32.6 MiB (8%)
  57. Title : English
  58. Language : English
  59. Service kind : Complete Main
  60. Default : No
  61. Forced : No
  62.  
  63. Audio #2
  64. ID : 3
  65. Format : AC-3
  66. Format/Info : Audio Coding 3
  67. Codec ID : A_AC3
  68. Duration : 23 min 42 s
  69. Bit rate mode : Constant
  70. Bit rate : 192 kb/s
  71. Channel(s) : 2 channels
  72. Channel positions : Front: L R
  73. Sampling rate : 48.0 kHz
  74. Frame rate : 31.250 FPS (1536 SPF)
  75. Bit depth : 16 bits
  76. Compression mode : Lossy
  77. Delay relative to video : -5 ms
  78. Stream size : 32.6 MiB (8%)
  79. Title : Japanese
  80. Language : Japanese
  81. Service kind : Complete Main
  82. Default : Yes
  83. Forced : No
  84.  
  85. Text #1
  86. ID : 4
  87. Format : PGS
  88. Codec ID : S_HDMV/PGS
  89. Codec ID/Info : Picture based subtitle format used on BDs/HD-DVDs
  90. Title : Signs/Song for Dub
  91. Language : English
  92. Default : No
  93. Forced : No
  94.  
  95. Text #2
  96. ID : 5
  97. Format : PGS
  98. Codec ID : S_HDMV/PGS
  99. Codec ID/Info : Picture based subtitle format used on BDs/HD-DVDs
  100. Title : Subtitles
  101. Language : English
  102. Default : Yes
  103. Forced : No
  104.  
  105. Menu
  106. 00:00:00.000 : :Chapter 1
  107. 00:06:32.517 : :Chapter 2
  108. 00:12:33.795 : :Chapter 3
  109. 00:21:56.023 : :Chapter 4
  110. 00:23:26.530 : :Chapter 5
RAW Paste Data