Guest User

Rendition.2007.1080p.BluRay.x264-BARC0DE

a guest
May 18th, 2019
44
Never
Not a member of Pastebin yet? Sign Up, it unlocks many cool features!
  1. General
  2. Unique ID                                : 188836102064448408688335884155382380332 (0x8E1082A69B847D14BD94D9DA02FFB72C)
  3. Complete name                            : Rendition 2007.1080p BluRay x264-BARC0DE.mkv
  4. Format                                   : Matroska
  5. Format version                           : Version 4
  6. File size                                : 9.77 GiB
  7. Duration                                 : 2 h 2 min
  8. Overall bit rate                         : 11.4 Mb/s
  9. Encoded date                             : UTC 2015-03-03 18:02:32
  10. Writing application                      : mkvmerge v7.6.0 ('Garden of Dreams') 64bit built on Feb  8 2015 13:04:34
  11. Writing library                          : libebml v1.3.1 + libmatroska v1.4.2
  12.  
  13. Video
  14. ID                                       : 1
  15. Format                                   : AVC
  16. Format/Info                              : Advanced Video Codec
  17. Format profile                           : High@L4.1
  18. Format settings                          : CABAC / 4 Ref Frames
  19. Format settings, CABAC                   : Yes
  20. Format settings, Reference frames        : 4 frames
  21. Codec ID                                 : V_MPEG4/ISO/AVC
  22. Duration                                 : 2 h 2 min
  23. Bit rate                                 : 10 000 kb/s
  24. Width                                    : 1 920 pixels
  25. Height                                   : 816 pixels
  26. Display aspect ratio                     : 2.35:1
  27. Frame rate mode                          : Constant
  28. Frame rate                               : 23.976 (24000/1001) FPS
  29. Color space                              : YUV
  30. Chroma subsampling                       : 4:2:0
  31. Bit depth                                : 8 bits
  32. Scan type                                : Progressive
  33. Bits/(Pixel*Frame)                       : 0.266
  34. Stream size                              : 8.47 GiB (87%)
  35. Writing library                          : x264 core 142 r2479 dd79a61
  36. Encoding settings                        : cabac=1 / ref=3 / deblock=1:0:0 / analyse=0x3:0x113 / me=hex / subme=7 / psy=1 / psy_rd=1.00:0.00 / mixed_ref=1 / me_range=16 / chroma_me=1 / trellis=1 / 8x8dct=1 / cqm=0 / deadzone=21,11 / fast_pskip=1 / chroma_qp_offset=-2 / threads=12 / lookahead_threads=2 / sliced_threads=0 / nr=0 / decimate=1 / interlaced=0 / bluray_compat=0 / constrained_intra=0 / bframes=3 / b_pyramid=2 / b_adapt=1 / b_bias=0 / direct=1 / weightb=1 / open_gop=0 / weightp=2 / keyint=240 / keyint_min=24 / scenecut=40 / intra_refresh=0 / rc_lookahead=40 / rc=abr / mbtree=1 / bitrate=10000 / ratetol=1.0 / qcomp=0.60 / qpmin=0 / qpmax=69 / qpstep=4 / vbv_maxrate=62500 / vbv_bufsize=78125 / nal_hrd=none / filler=0 / ip_ratio=1.40 / aq=1:1.00
  37. Default                                  : Yes
  38. Forced                                   : No
  39. Color range                              : Limited
  40. Color primaries                          : BT.709
  41. Transfer characteristics                 : BT.709
  42. Matrix coefficients                      : BT.709
  43.  
  44. Audio
  45. ID                                       : 2
  46. Format                                   : DTS
  47. Format/Info                              : Digital Theater Systems
  48. Codec ID                                 : A_DTS
  49. Duration                                 : 2 h 2 min
  50. Bit rate mode                            : Constant
  51. Bit rate                                 : 1 509 kb/s
  52. Channel(s)                               : 6 channels
  53. Channel layout                           : C L R Ls Rs LFE
  54. Sampling rate                            : 48.0 kHz
  55. Frame rate                               : 93.750 FPS (512 SPF)
  56. Bit depth                                : 24 bits
  57. Compression mode                         : Lossy
  58. Stream size                              : 1.29 GiB (13%)
  59. Title                                    : Surround
  60. Language                                 : English
  61. Default                                  : Yes
  62. Forced                                   : No
  63.  
  64. Text
  65. ID                                       : 3
  66. Format                                   : PGS
  67. Muxing mode                              : zlib
  68. Codec ID                                 : S_HDMV/PGS
  69. Codec ID/Info                            : Picture based subtitle format used on BDs/HD-DVDs
  70. Duration                                 : 1 h 43 min
  71. Bit rate                                 : 1 857 b/s
  72. Count of elements                        : 604
  73. Stream size                              : 1.37 MiB (0%)
  74. Language                                 : English
  75. Default                                  : No
  76. Forced                                   : No
  77.  
  78. Menu
  79. 00:00:00.000                             : :Chapter 1
  80. 00:02:26.772                             : :Chapter 2
  81. 00:09:56.888                             : :Chapter 3
  82. 00:17:08.903                             : :Chapter 4
  83. 00:23:05.968                             : :Chapter 5
  84. 00:33:28.173                             : :Chapter 6
  85. 00:39:51.889                             : :Chapter 7
  86. 00:49:02.940                             : :Chapter 8
  87. 00:56:47.487                             : :Chapter 9
  88. 01:05:10.698                             : :Chapter 10
  89. 01:08:47.332                             : :Chapter 11
  90. 01:13:43.294                             : :Chapter 12
  91. 01:19:17.670                             : :Chapter 13
  92. 01:24:48.709                             : :Chapter 14
  93. 01:32:31.212                             : :Chapter 15
  94. 01:34:45.972                             : :Chapter 16
  95. 01:42:29.352                             : :Chapter 17
  96. 01:46:03.607                             : :Chapter 18
  97. 01:49:24.433                             : :Chapter 19
  98. 01:54:10.552                             : :Chapter 20
  99. 02:02:18.373                             : :Chapter 21
RAW Paste Data