Advertisement
Guest User

Untitled

a guest
Oct 16th, 2017
370
0
Never
Not a member of Pastebin yet? Sign Up, it unlocks many cool features!
text 13.58 KB | None | 0 0
  1. General
  2. Unique ID : 229673287353544559630979252021808575284 (0xACC97755DE6C8885B1FBB6DF60F3B334)
  3. Complete name : Alien - Covenant 2017 (1080p x265 10bit Tigole).mkv
  4. Format : Matroska
  5. Format version : Version 4 / Version 2
  6. File size : 3.17 GiB
  7. Duration : 2 h 2 min
  8. Overall bit rate : 3 713 kb/s
  9. Movie name : Alien: Covenant
  10. Encoded date : UTC 2017-08-07 05:57:56
  11. Writing application : mkvmerge v12.0.0 ('Trust / Lust') 64bit
  12. Writing library : libebml v1.3.4 + libmatroska v1.4.5
  13.  
  14. Video
  15. ID : 1
  16. Format : HEVC
  17. Format/Info : High Efficiency Video Coding
  18. Format profile : Main 10@L4@Main
  19. Codec ID : V_MPEGH/ISO/HEVC
  20. Duration : 2 h 2 min
  21. Bit rate : 2 916 kb/s
  22. Width : 1 920 pixels
  23. Height : 800 pixels
  24. Display aspect ratio : 2.40:1
  25. Frame rate mode : Constant
  26. Frame rate : 23.976 (24000/1001) FPS
  27. Color space : YUV
  28. Chroma subsampling : 4:2:0
  29. Bit depth : 10 bits
  30. Bits/(Pixel*Frame) : 0.079
  31. Stream size : 2.49 GiB (79%)
  32. Writing library : x265 2.5+2-18fa144d453e:[Windows][GCC 7.1.0][64 bit] 10bit
  33. Encoding settings : cpuid=1173503 / frame-threads=3 / numa-pools=8 / wpp / no-pmode / no-pme / no-psnr / no-ssim / log-level=2 / input-csp=1 / input-res=1920x800 / interlace=0 / total-frames=175584 / level-idc=0 / high-tier=1 / uhd-bd=0 / ref=4 / no-allow-non-conformance / no-repeat-headers / annexb / no-aud / no-hrd / info / hash=0 / no-temporal-layers / open-gop / min-keyint=23 / keyint=250 / bframes=4 / b-adapt=2 / b-pyramid / bframe-bias=0 / rc-lookahead=25 / lookahead-slices=4 / scenecut=40 / no-intra-refresh / ctu=64 / min-cu-size=8 / rect / no-amp / max-tu-size=32 / tu-inter-depth=1 / tu-intra-depth=1 / limit-tu=0 / rdoq-level=2 / dynamic-rd=0.00 / no-ssim-rd / signhide / no-tskip / nr-intra=0 / nr-inter=0 / no-constrained-intra / strong-intra-smoothing / max-merge=3 / limit-refs=3 / limit-modes / me=3 / subme=3 / merange=57 / temporal-mvp / weightp / no-weightb / no-analyze-src-pics / deblock=0:0 / sao / no-sao-non-deblock / rd=4 / no-early-skip / rskip / no-fast-intra / no-tskip-fast / no-cu-lossless / no-b-intra / rdpenalty=0 / psy-rd=2.00 / psy-rdoq=1.00 / no-rd-refine / analysis-reuse-mode=0 / no-lossless / cbqpoffs=0 / crqpoffs=0 / rc=abr / bitrate=2915 / qcomp=0.60 / qpstep=4 / stats-write=0 / stats-read=2 / cplxblur=20.0 / qblur=0.5 / ipratio=1.40 / pbratio=1.30 / aq-mode=2 / aq-strength=1.00 / cutree / zone-count=0 / no-strict-cbr / qg-size=32 / no-rc-grain / qpmax=69 / qpmin=0 / no-const-vbv / sar=0 / overscan=0 / videoformat=5 / range=0 / colorprim=2 / transfer=2 / colormatrix=2 / chromaloc=0 / display-window=0 / max-cll=0,0 / min-luma=0 / max-luma=1023 / log2-max-poc-lsb=8 / vui-timing-info / vui-hrd-info / slices=1 / opt-qp-pps / opt-ref-list-length-pps / no-multi-pass-opt-rps / scenecut-bias=0.05 / no-opt-cu-delta-qp / no-aq-motion / no-hdr / no-hdr-opt / no-dhdr10-opt / analysis-reuse-level=5 / scale-factor=0 / refine-intra=0 / refine-inter=0 / refine-mv=0 / no-limit-sao / ctu-info=0
  34. Default : Yes
  35. Forced : No
  36.  
  37. Audio #1
  38. ID : 2
  39. Format : AAC
  40. Format/Info : Advanced Audio Codec
  41. Format profile : LC
  42. Codec ID : A_AAC
  43. Duration : 2 h 2 min
  44. Bit rate : 628 kb/s
  45. Channel(s) : 8 channels
  46. Channel positions : Front: L C R, Side: L R, Back: L R, LFE
  47. Sampling rate : 48.0 kHz
  48. Frame rate : 46.875 FPS (1024 SPF)
  49. Compression mode : Lossy
  50. Delay relative to video : 20 ms
  51. Stream size : 549 MiB (17%)
  52. Language : English
  53. Default : Yes
  54. Forced : No
  55.  
  56. Audio #2
  57. ID : 3
  58. Format : AAC
  59. Format/Info : Advanced Audio Codec
  60. Format profile : HE-AAC / LC
  61. Codec ID : A_AAC
  62. Duration : 2 h 2 min
  63. Bit rate : 66.2 kb/s
  64. Channel(s) : 2 channels
  65. Channel positions : Front: L R
  66. Sampling rate : 48.0 kHz / 24.0 kHz
  67. Frame rate : 23.438 FPS (1024 SPF)
  68. Compression mode : Lossy
  69. Delay relative to video : 40 ms
  70. Stream size : 57.4 MiB (2%)
  71. Title : Commentary
  72. Language : English
  73. Default : No
  74. Forced : No
  75.  
  76. Text #1
  77. ID : 4
  78. Format : VobSub
  79. Muxing mode : zlib
  80. Codec ID : S_VOBSUB
  81. Codec ID/Info : Picture based subtitle format used on DVDs
  82. Duration : 1 h 54 min
  83. Bit rate : 6 242 b/s
  84. Count of elements : 1709
  85. Stream size : 5.10 MiB (0%)
  86. Language : English
  87. Default : No
  88. Forced : No
  89.  
  90. Text #2
  91. ID : 5
  92. Format : VobSub
  93. Muxing mode : zlib
  94. Codec ID : S_VOBSUB
  95. Codec ID/Info : Picture based subtitle format used on DVDs
  96. Duration : 1 h 55 min
  97. Bit rate : 11.3 kb/s
  98. Count of elements : 2093
  99. Stream size : 9.35 MiB (0%)
  100. Title : Commentary
  101. Language : English
  102. Default : No
  103. Forced : No
  104.  
  105. Text #3
  106. ID : 6
  107. Format : VobSub
  108. Muxing mode : zlib
  109. Codec ID : S_VOBSUB
  110. Codec ID/Info : Picture based subtitle format used on DVDs
  111. Duration : 2 h 0 min
  112. Bit rate : 3 956 b/s
  113. Count of elements : 1062
  114. Stream size : 3.41 MiB (0%)
  115. Language : Danish
  116. Default : No
  117. Forced : No
  118.  
  119. Text #4
  120. ID : 7
  121. Format : VobSub
  122. Muxing mode : zlib
  123. Codec ID : S_VOBSUB
  124. Codec ID/Info : Picture based subtitle format used on DVDs
  125. Duration : 2 h 1 min
  126. Bit rate : 9 171 b/s
  127. Count of elements : 1941
  128. Stream size : 8.00 MiB (0%)
  129. Title : Commentary
  130. Language : Danish
  131. Default : No
  132. Forced : No
  133.  
  134. Text #5
  135. ID : 8
  136. Format : VobSub
  137. Muxing mode : zlib
  138. Codec ID : S_VOBSUB
  139. Codec ID/Info : Picture based subtitle format used on DVDs
  140. Duration : 2 h 0 min
  141. Bit rate : 3 784 b/s
  142. Count of elements : 1306
  143. Stream size : 3.26 MiB (0%)
  144. Language : Finnish
  145. Default : No
  146. Forced : No
  147.  
  148. Text #6
  149. ID : 9
  150. Format : VobSub
  151. Muxing mode : zlib
  152. Codec ID : S_VOBSUB
  153. Codec ID/Info : Picture based subtitle format used on DVDs
  154. Duration : 2 h 1 min
  155. Bit rate : 7 980 b/s
  156. Count of elements : 1968
  157. Stream size : 6.96 MiB (0%)
  158. Title : Commentary
  159. Language : Finnish
  160. Default : No
  161. Forced : No
  162.  
  163. Text #7
  164. ID : 10
  165. Format : VobSub
  166. Muxing mode : zlib
  167. Codec ID : S_VOBSUB
  168. Codec ID/Info : Picture based subtitle format used on DVDs
  169. Duration : 2 h 0 min
  170. Bit rate : 4 523 b/s
  171. Count of elements : 1340
  172. Stream size : 3.90 MiB (0%)
  173. Language : French
  174. Default : No
  175. Forced : No
  176.  
  177. Text #8
  178. ID : 11
  179. Format : VobSub
  180. Muxing mode : zlib
  181. Codec ID : S_VOBSUB
  182. Codec ID/Info : Picture based subtitle format used on DVDs
  183. Duration : 2 h 1 min
  184. Bit rate : 9 093 b/s
  185. Count of elements : 1969
  186. Stream size : 7.93 MiB (0%)
  187. Title : Commentary
  188. Language : French
  189. Default : No
  190. Forced : No
  191.  
  192. Text #9
  193. ID : 12
  194. Format : VobSub
  195. Muxing mode : zlib
  196. Codec ID : S_VOBSUB
  197. Codec ID/Info : Picture based subtitle format used on DVDs
  198. Duration : 2 h 0 min
  199. Bit rate : 4 235 b/s
  200. Count of elements : 1334
  201. Stream size : 3.65 MiB (0%)
  202. Language : Norwegian Bokmal
  203. Default : No
  204. Forced : No
  205.  
  206. Text #10
  207. ID : 13
  208. Format : VobSub
  209. Muxing mode : zlib
  210. Codec ID : S_VOBSUB
  211. Codec ID/Info : Picture based subtitle format used on DVDs
  212. Duration : 2 h 1 min
  213. Bit rate : 9 279 b/s
  214. Count of elements : 1965
  215. Stream size : 8.09 MiB (0%)
  216. Title : Commentary
  217. Language : Norwegian Bokmal
  218. Default : No
  219. Forced : No
  220.  
  221. Text #11
  222. ID : 14
  223. Format : VobSub
  224. Muxing mode : zlib
  225. Codec ID : S_VOBSUB
  226. Codec ID/Info : Picture based subtitle format used on DVDs
  227. Duration : 2 h 0 min
  228. Bit rate : 4 127 b/s
  229. Count of elements : 1317
  230. Stream size : 3.56 MiB (0%)
  231. Language : Portuguese
  232. Default : No
  233. Forced : No
  234.  
  235. Text #12
  236. ID : 15
  237. Format : VobSub
  238. Muxing mode : zlib
  239. Codec ID : S_VOBSUB
  240. Codec ID/Info : Picture based subtitle format used on DVDs
  241. Duration : 2 h 0 min
  242. Bit rate : 4 498 b/s
  243. Count of elements : 1327
  244. Stream size : 3.88 MiB (0%)
  245. Language : Spanish
  246. Default : No
  247. Forced : No
  248.  
  249. Text #13
  250. ID : 16
  251. Format : VobSub
  252. Muxing mode : zlib
  253. Codec ID : S_VOBSUB
  254. Codec ID/Info : Picture based subtitle format used on DVDs
  255. Duration : 2 h 1 min
  256. Bit rate : 9 243 b/s
  257. Count of elements : 1969
  258. Stream size : 8.06 MiB (0%)
  259. Title : Commentary
  260. Language : Spanish
  261. Default : No
  262. Forced : No
  263.  
  264. Text #14
  265. ID : 17
  266. Format : VobSub
  267. Muxing mode : zlib
  268. Codec ID : S_VOBSUB
  269. Codec ID/Info : Picture based subtitle format used on DVDs
  270. Duration : 2 h 0 min
  271. Bit rate : 4 239 b/s
  272. Count of elements : 1328
  273. Stream size : 3.66 MiB (0%)
  274. Language : Swedish
  275. Default : No
  276. Forced : No
  277.  
  278. Text #15
  279. ID : 18
  280. Format : VobSub
  281. Muxing mode : zlib
  282. Codec ID : S_VOBSUB
  283. Codec ID/Info : Picture based subtitle format used on DVDs
  284. Duration : 2 h 1 min
  285. Bit rate : 9 375 b/s
  286. Count of elements : 1965
  287. Stream size : 8.17 MiB (0%)
  288. Title : Commentary
  289. Language : Swedish
  290. Default : No
  291. Forced : No
  292.  
  293. Menu
  294. 00:00:00.000 : en:Chapter 01
  295. 00:04:47.662 : en:Chapter 02
  296. 00:13:07.495 : en:Chapter 03
  297. 00:18:11.924 : en:Chapter 04
  298. 00:22:46.448 : en:Chapter 05
  299. 00:27:51.169 : en:Chapter 06
  300. 00:33:12.907 : en:Chapter 07
  301. 00:37:18.736 : en:Chapter 08
  302. 00:42:19.912 : en:Chapter 09
  303. 00:47:43.694 : en:Chapter 10
  304. 00:52:04.371 : en:Chapter 11
  305. 00:55:56.269 : en:Chapter 12
  306. 01:00:17.447 : en:Chapter 13
  307. 01:06:20.643 : en:Chapter 14
  308. 01:11:25.030 : en:Chapter 15
  309. 01:16:35.882 : en:Chapter 16
  310. 01:21:10.031 : en:Chapter 17
  311. 01:28:18.793 : en:Chapter 18
  312. 01:31:21.559 : en:Chapter 19
  313. 01:34:52.436 : en:Chapter 20
  314. 01:39:23.666 : en:Chapter 21
  315. 01:43:35.876 : en:Chapter 22
  316. 01:50:49.309 : en:Chapter 23
  317. 01:55:27.754 : en:Chapter 24
Advertisement
Add Comment
Please, Sign In to add comment
Advertisement