Guest User

Sixteen.Candles.1984.1080p.BluRay.REMUX.VC-1.DTS-HD.MA.5.1-EPSiLON

a guest
Jun 16th, 2019
43
Never
Not a member of Pastebin yet? Sign Up, it unlocks many cool features!
  1. General
  2. Complete name                            : Sixteen.Candles.1984.1080p.BluRay.REMUX.VC-1.DTS-HD.MA.5.1-EPSiLON.mkv
  3. Format                                   : Matroska
  4. Format version                           : Version 4
  5. File size                                : 20.4 GiB
  6. Duration                                 : 1 h 32 min
  7. Overall bit rate mode                    : Variable
  8. Overall bit rate                         : 31.6 Mb/s
  9. Encoded date                             : UTC 2017-11-27 20:51:50
  10. Writing application                      : mkvmerge v18.0.0 ('Apricity') 64-bit
  11. Writing library                          : libebml v1.3.5 + libmatroska v1.4.8
  12.  
  13. Video
  14. ID                                       : 1
  15. Format                                   : VC-1
  16. Format profile                           : Advanced@L3
  17. Codec ID                                 : V_MS/VFW/FOURCC / WVC1
  18. Codec ID/Hint                            : Microsoft
  19. Duration                                 : 1 h 32 min
  20. Bit rate                                 : 27.7 Mb/s
  21. Width                                    : 1 920 pixels
  22. Height                                   : 1 080 pixels
  23. Display aspect ratio                     : 16:9
  24. Frame rate mode                          : Constant
  25. Frame rate                               : 23.976 (24000/1001) FPS
  26. Color space                              : YUV
  27. Chroma subsampling                       : 4:2:0
  28. Bit depth                                : 8 bits
  29. Scan type                                : Progressive
  30. Compression mode                         : Lossy
  31. Bits/(Pixel*Frame)                       : 0.557
  32. Stream size                              : 17.9 GiB (88%)
  33. Title                                    : VC-1 Video / 27693 kbps / 1080p / 23,976 fps / 16:9 / Advanced Profile 3
  34. Language                                 : English
  35. Default                                  : Yes
  36. Forced                                   : No
  37.  
  38. Audio
  39. ID                                       : 2
  40. Format                                   : DTS XLL
  41. Format/Info                              : Digital Theater Systems
  42. Commercial name                          : DTS-HD Master Audio
  43. Codec ID                                 : A_DTS
  44. Duration                                 : 1 h 32 min
  45. Bit rate mode                            : Variable
  46. Bit rate                                 : 3 212 kb/s
  47. Channel(s)                               : 6 channels
  48. Channel layout                           : C L R Ls Rs LFE
  49. Sampling rate                            : 48.0 kHz
  50. Frame rate                               : 93.750 FPS (512 SPF)
  51. Bit depth                                : 24 bits
  52. Compression mode                         : Lossless
  53. Stream size                              : 2.08 GiB (10%)
  54. Title                                    : DTS-HD Master Audio / 5.1 / 48 kHz / 3212 kbps / 24-bit
  55. Language                                 : English
  56. Default                                  : Yes
  57. Forced                                   : No
  58.  
  59. Text #1
  60. ID                                       : 3
  61. Format                                   : PGS
  62. Codec ID                                 : S_HDMV/PGS
  63. Codec ID/Info                            : Picture based subtitle format used on BDs/HD-DVDs
  64. Duration                                 : 1 h 29 min
  65. Bit rate                                 : 41.0 kb/s
  66. Count of elements                        : 2526
  67. Stream size                              : 26.1 MiB (0%)
  68. Title                                    : SDH
  69. Language                                 : English
  70. Default                                  : No
  71. Forced                                   : No
  72.  
  73. Text #2
  74. ID                                       : 4
  75. Format                                   : PGS
  76. Codec ID                                 : S_HDMV/PGS
  77. Codec ID/Info                            : Picture based subtitle format used on BDs/HD-DVDs
  78. Duration                                 : 1 h 29 min
  79. Bit rate                                 : 29.2 kb/s
  80. Count of elements                        : 2211
  81. Stream size                              : 18.6 MiB (0%)
  82. Title                                    : Traditional
  83. Language                                 : Chinese
  84. Default                                  : No
  85. Forced                                   : No
  86.  
  87. Text #3
  88. ID                                       : 5
  89. Format                                   : PGS
  90. Codec ID                                 : S_HDMV/PGS
  91. Codec ID/Info                            : Picture based subtitle format used on BDs/HD-DVDs
  92. Duration                                 : 1 h 29 min
  93. Bit rate                                 : 35.1 kb/s
  94. Count of elements                        : 2209
  95. Stream size                              : 22.4 MiB (0%)
  96. Language                                 : Danish
  97. Default                                  : No
  98. Forced                                   : No
  99.  
  100. Text #4
  101. ID                                       : 6
  102. Format                                   : PGS
  103. Codec ID                                 : S_HDMV/PGS
  104. Codec ID/Info                            : Picture based subtitle format used on BDs/HD-DVDs
  105. Duration                                 : 1 h 29 min
  106. Bit rate                                 : 33.9 kb/s
  107. Count of elements                        : 2209
  108. Stream size                              : 21.6 MiB (0%)
  109. Language                                 : Dutch
  110. Default                                  : No
  111. Forced                                   : No
  112.  
  113. Text #5
  114. ID                                       : 7
  115. Format                                   : PGS
  116. Codec ID                                 : S_HDMV/PGS
  117. Codec ID/Info                            : Picture based subtitle format used on BDs/HD-DVDs
  118. Duration                                 : 1 h 29 min
  119. Bit rate                                 : 35.0 kb/s
  120. Count of elements                        : 2207
  121. Stream size                              : 22.3 MiB (0%)
  122. Language                                 : Finnish
  123. Default                                  : No
  124. Forced                                   : No
  125.  
  126. Text #6
  127. ID                                       : 8
  128. Format                                   : PGS
  129. Codec ID                                 : S_HDMV/PGS
  130. Codec ID/Info                            : Picture based subtitle format used on BDs/HD-DVDs
  131. Duration                                 : 1 h 32 min
  132. Bit rate                                 : 34.3 kb/s
  133. Count of elements                        : 2210
  134. Stream size                              : 22.7 MiB (0%)
  135. Language                                 : French
  136. Default                                  : No
  137. Forced                                   : No
  138.  
  139. Text #7
  140. ID                                       : 9
  141. Format                                   : PGS
  142. Codec ID                                 : S_HDMV/PGS
  143. Codec ID/Info                            : Picture based subtitle format used on BDs/HD-DVDs
  144. Duration                                 : 1 h 29 min
  145. Bit rate                                 : 38.6 kb/s
  146. Count of elements                        : 2209
  147. Stream size                              : 24.6 MiB (0%)
  148. Language                                 : German
  149. Default                                  : No
  150. Forced                                   : No
  151.  
  152. Text #8
  153. ID                                       : 10
  154. Format                                   : PGS
  155. Codec ID                                 : S_HDMV/PGS
  156. Codec ID/Info                            : Picture based subtitle format used on BDs/HD-DVDs
  157. Duration                                 : 1 h 29 min
  158. Bit rate                                 : 36.5 kb/s
  159. Count of elements                        : 2211
  160. Stream size                              : 23.2 MiB (0%)
  161. Language                                 : Greek
  162. Default                                  : No
  163. Forced                                   : No
  164.  
  165. Text #9
  166. ID                                       : 11
  167. Format                                   : PGS
  168. Codec ID                                 : S_HDMV/PGS
  169. Codec ID/Info                            : Picture based subtitle format used on BDs/HD-DVDs
  170. Duration                                 : 1 h 29 min
  171. Bit rate                                 : 31.6 kb/s
  172. Count of elements                        : 2207
  173. Stream size                              : 20.1 MiB (0%)
  174. Language                                 : Italian
  175. Default                                  : No
  176. Forced                                   : No
  177.  
  178. Text #10
  179. ID                                       : 12
  180. Format                                   : PGS
  181. Codec ID                                 : S_HDMV/PGS
  182. Codec ID/Info                            : Picture based subtitle format used on BDs/HD-DVDs
  183. Duration                                 : 1 h 29 min
  184. Bit rate                                 : 19.7 kb/s
  185. Count of elements                        : 2028
  186. Stream size                              : 12.5 MiB (0%)
  187. Language                                 : Japanese
  188. Default                                  : No
  189. Forced                                   : No
  190.  
  191. Text #11
  192. ID                                       : 13
  193. Format                                   : PGS
  194. Codec ID                                 : S_HDMV/PGS
  195. Codec ID/Info                            : Picture based subtitle format used on BDs/HD-DVDs
  196. Duration                                 : 1 h 29 min
  197. Bit rate                                 : 23.8 kb/s
  198. Count of elements                        : 2201
  199. Stream size                              : 15.2 MiB (0%)
  200. Language                                 : Korean
  201. Default                                  : No
  202. Forced                                   : No
  203.  
  204. Text #12
  205. ID                                       : 14
  206. Format                                   : PGS
  207. Codec ID                                 : S_HDMV/PGS
  208. Codec ID/Info                            : Picture based subtitle format used on BDs/HD-DVDs
  209. Duration                                 : 1 h 29 min
  210. Bit rate                                 : 34.5 kb/s
  211. Count of elements                        : 2209
  212. Stream size                              : 22.0 MiB (0%)
  213. Language                                 : Norwegian
  214. Default                                  : No
  215. Forced                                   : No
  216.  
  217. Text #13
  218. ID                                       : 15
  219. Format                                   : PGS
  220. Codec ID                                 : S_HDMV/PGS
  221. Codec ID/Info                            : Picture based subtitle format used on BDs/HD-DVDs
  222. Duration                                 : 1 h 29 min
  223. Bit rate                                 : 34.0 kb/s
  224. Count of elements                        : 2211
  225. Stream size                              : 21.7 MiB (0%)
  226. Language                                 : Russian
  227. Default                                  : No
  228. Forced                                   : No
  229.  
  230. Text #14
  231. ID                                       : 16
  232. Format                                   : PGS
  233. Codec ID                                 : S_HDMV/PGS
  234. Codec ID/Info                            : Picture based subtitle format used on BDs/HD-DVDs
  235. Duration                                 : 1 h 29 min
  236. Bit rate                                 : 35.2 kb/s
  237. Count of elements                        : 2209
  238. Stream size                              : 22.4 MiB (0%)
  239. Title                                    : Castilian
  240. Language                                 : Spanish
  241. Default                                  : No
  242. Forced                                   : No
  243.  
  244. Text #15
  245. ID                                       : 17
  246. Format                                   : PGS
  247. Codec ID                                 : S_HDMV/PGS
  248. Codec ID/Info                            : Picture based subtitle format used on BDs/HD-DVDs
  249. Duration                                 : 1 h 29 min
  250. Bit rate                                 : 35.0 kb/s
  251. Count of elements                        : 2153
  252. Stream size                              : 22.3 MiB (0%)
  253. Title                                    : Latin American
  254. Language                                 : Spanish
  255. Default                                  : No
  256. Forced                                   : No
  257.  
  258. Text #16
  259. ID                                       : 18
  260. Format                                   : PGS
  261. Codec ID                                 : S_HDMV/PGS
  262. Codec ID/Info                            : Picture based subtitle format used on BDs/HD-DVDs
  263. Duration                                 : 1 h 29 min
  264. Bit rate                                 : 32.5 kb/s
  265. Count of elements                        : 2209
  266. Stream size                              : 20.7 MiB (0%)
  267. Language                                 : Polish
  268. Default                                  : No
  269. Forced                                   : No
  270.  
  271. Text #17
  272. ID                                       : 19
  273. Format                                   : PGS
  274. Codec ID                                 : S_HDMV/PGS
  275. Codec ID/Info                            : Picture based subtitle format used on BDs/HD-DVDs
  276. Duration                                 : 1 h 32 min
  277. Bit rate                                 : 34.1 kb/s
  278. Count of elements                        : 2210
  279. Stream size                              : 22.6 MiB (0%)
  280. Title                                    : Brazilian
  281. Language                                 : Portuguese
  282. Default                                  : No
  283. Forced                                   : No
  284.  
  285. Text #18
  286. ID                                       : 20
  287. Format                                   : PGS
  288. Codec ID                                 : S_HDMV/PGS
  289. Codec ID/Info                            : Picture based subtitle format used on BDs/HD-DVDs
  290. Duration                                 : 1 h 29 min
  291. Bit rate                                 : 33.9 kb/s
  292. Count of elements                        : 2211
  293. Stream size                              : 21.6 MiB (0%)
  294. Language                                 : Portuguese
  295. Default                                  : No
  296. Forced                                   : No
  297.  
  298. Text #19
  299. ID                                       : 21
  300. Format                                   : PGS
  301. Codec ID                                 : S_HDMV/PGS
  302. Codec ID/Info                            : Picture based subtitle format used on BDs/HD-DVDs
  303. Duration                                 : 1 h 29 min
  304. Bit rate                                 : 32.8 kb/s
  305. Count of elements                        : 2199
  306. Stream size                              : 20.9 MiB (0%)
  307. Language                                 : Swedish
  308. Default                                  : No
  309. Forced                                   : No
  310.  
  311. Text #20
  312. ID                                       : 22
  313. Format                                   : PGS
  314. Codec ID                                 : S_HDMV/PGS
  315. Codec ID/Info                            : Picture based subtitle format used on BDs/HD-DVDs
  316. Duration                                 : 1 h 29 min
  317. Bit rate                                 : 30.0 kb/s
  318. Count of elements                        : 2211
  319. Stream size                              : 19.1 MiB (0%)
  320. Language                                 : Thai
  321. Default                                  : No
  322. Forced                                   : No
  323.  
  324. Text #21
  325. ID                                       : 23
  326. Format                                   : PGS
  327. Codec ID                                 : S_HDMV/PGS
  328. Codec ID/Info                            : Picture based subtitle format used on BDs/HD-DVDs
  329. Duration                                 : 1 h 29 min
  330. Bit rate                                 : 34.6 kb/s
  331. Count of elements                        : 2209
  332. Stream size                              : 22.0 MiB (0%)
  333. Language                                 : Turkish
  334. Default                                  : No
  335. Forced                                   : No
  336.  
  337. Menu
  338. 00:00:00.000                             : en:Everybody Up!
  339. 00:01:38.681                             : en:Turning Sixteen
  340. 00:04:23.554                             : en:Main Titles
  341. 00:07:18.980                             : en:The Test
  342. 00:11:42.326                             : en:The Bus
  343. 00:15:12.870                             : en:A Full House
  344. 00:22:54.748                             : en:Ballroom Blitz
  345. 00:31:34.767                             : en:Car Talk
  346. 00:41:05.671                             : en:On the Town
  347. 00:43:52.087                             : en:Party Time!
  348. 00:53:45.597                             : en:Heart to Heart
  349. 00:58:11.988                             : en:The Buddy System
  350. 01:01:19.467                             : en:Cruising
  351. 01:10:22.843                             : en:The Morning After
  352. 01:15:43.830                             : en:Going to the Chapel
  353. 01:18:17.109                             : en:Here Comes the Bride
  354. 01:26:28.433                             : en:A Dream Comes True
  355. 01:29:26.986                             : en:End Titles
RAW Paste Data