SHARE
TWEET

Gonna be the Twin-Tail!! - 03 [720p][FuniRip][Pikanet128]...

HYBRID_BEING Nov 5th, 2014 151 Never
Not a member of Pastebin yet? Sign Up, it unlocks many cool features!
  1. General
  2. Format                         : MPEG-4
  3. Format profile                 : Base Media / Version 2
  4. Codec ID                       : mp42
  5. File size                      : 630 MiB
  6. Duration                       : 24mn 16s
  7. Overall bit rate mode          : Variable
  8. Overall bit rate               : 3 630 Kbps
  9. Collection                     : Gonna be the Twin-Tail!!
  10. Season                         : 1
  11. Album                          : Gonna be the Twin-Tail!!, Season 1
  12. Album/Performer                : Gonna be the Twin-Tail!!
  13. Part                           : 3
  14. Part/Position                  : 1
  15. Part/Total                     : 1
  16. Track name                     : The Azure Surge! Tailblue
  17. Track name/Position            : 3
  18. Performer                      : Gonna be the Twin-Tail!!
  19. Genre                          : Anime, Subbed, Simulcast
  20. ContentType                    : TV Show
  21. Description                    : Twoearle gives the others a tour of the newly-completed secret base. When an Elemelian appears, Soji goes into action to stop the attack, but he soon finds himself in over his head. It's going to take another Tail Gear warrior to rescue him!
  22. Recorded date                  : 2014-10-23
  23. Encoded date                   : UTC 2014-10-23 17:24:00
  24. Tagged date                    : UTC 2014-10-23 17:24:00
  25. Cover                          : Yes
  26. Comment                        : Source: Funicom-DL; By: Pikanet128
  27. LongDescription                : Twoearle gives the others a tour of the newly-completed secret base. When an Elemelian appears, Soji goes into action to stop the attack, but he soon finds himself in over his head. It's going to take another Tail Gear warrior to rescue him!
  28. Part_ID                        : S01E03
  29. HDVideo                        : Yes
  30. fpth1                          : Gonna be the Twin_Tail__
  31. fpth2                          : Gonna be the Twin_Tail__
  32.  
  33. Video
  34. ID                             : 1
  35. Format                         : AVC
  36. Format/Info                    : Advanced Video Codec
  37. Format profile                 : High@L3.1
  38. Format settings, CABAC         : Yes
  39. Format settings, ReFrames      : 2 frames
  40. Codec ID                       : avc1
  41. Codec ID/Info                  : Advanced Video Coding
  42. Duration                       : 24mn 16s
  43. Bit rate mode                  : Constant
  44. Bit rate                       : 3 500 Kbps
  45. Width                          : 1 280 pixels
  46. Height                         : 720 pixels
  47. Display aspect ratio           : 16:9
  48. Frame rate mode                : Constant
  49. Frame rate                     : 23.976 fps
  50. Color space                    : YUV
  51. Chroma subsampling             : 4:2:0
  52. Bit depth                      : 8 bits
  53. Scan type                      : Progressive
  54. Bits/(Pixel*Frame)             : 0.158
  55. Stream size                    : 607 MiB (96%)
  56. Language                       : English
  57. Encoded date                   : UTC 2014-10-23 17:24:00
  58. Tagged date                    : UTC 2014-10-23 17:24:00
  59. Color primaries                : BT.709
  60. Transfer characteristics       : BT.709
  61. Matrix coefficients            : BT.709
  62.  
  63. Audio
  64. ID                             : 2
  65. Format                         : AAC
  66. Format/Info                    : Advanced Audio Codec
  67. Format profile                 : LC
  68. Codec ID                       : 40
  69. Duration                       : 24mn 16s
  70. Bit rate mode                  : Variable
  71. Bit rate                       : 126 Kbps
  72. Maximum bit rate               : 233 Kbps
  73. Channel(s)                     : 2 channels
  74. Channel positions              : Front: L R
  75. Sampling rate                  : 44.1 KHz
  76. Compression mode               : Lossy
  77. Stream size                    : 21.8 MiB (3%)
  78. Language                       : English
  79. Encoded date                   : UTC 2014-10-23 17:24:00
  80. Tagged date                    : UTC 2014-10-23 17:24:00
  81. mdhd_Duration                  : 1456216
RAW Paste Data
We use cookies for various purposes including analytics. By continuing to use Pastebin, you agree to our use of cookies as described in the Cookies Policy. OK, I Understand
Top