Guest User

h264

a guest
Aug 17th, 2019
45
Never
Not a member of Pastebin yet? Sign Up, it unlocks many cool features!
  1. C:\Users\BigAppa\AppData\Roaming\youtube-dl>ffmpeg.exe -i "D:\Shagun\Yadav Videos\Being Recorded\To Be Uploaded\INA-14(Economics-3) - 28th July.mkv" "D:\Shagun\Yadav Videos\Being Recorded\To Be Uploaded\INA-14(Economics-3) - 28th July(FFMPEGed).mkv"
  2. ffmpeg version 4.1.4 Copyright (c) 2000-2019 the FFmpeg developers
  3. built with gcc 9.1.1 (GCC) 20190716
  4. configuration: --enable-gpl --enable-version3 --enable-sdl2 --enable-fontconfig --enable-gnutls --enable-iconv --enable-libass --enable-libbluray --enable-libfreetype --enable-libmp3lame --enable-libopencore-amrnb --enable-libopencore-amrwb --enable-libopenjpeg --enable-libopus --enable-libshine --enable-libsnappy --enable-libsoxr --enable-libtheora --enable-libtwolame --enable-libvpx --enable-libwavpack --enable-libwebp --enable-libx264 --enable-libx265 --enable-libxml2 --enable-libzimg --enable-lzma --enable-zlib --enable-gmp --enable-libvidstab --enable-libvorbis --enable-libvo-amrwbenc --enable-libmysofa --enable-libspeex --enable-libxvid --enable-libaom --enable-libmfx --enable-amf --enable-ffnvcodec --enable-cuvid --enable-d3d11va --enable-nvenc --enable-nvdec --enable-dxva2 --enable-avisynth
  5. libavutil 56. 22.100 / 56. 22.100
  6. libavcodec 58. 35.100 / 58. 35.100
  7. libavformat 58. 20.100 / 58. 20.100
  8. libavdevice 58. 5.100 / 58. 5.100
  9. libavfilter 7. 40.101 / 7. 40.101
  10. libswscale 5. 3.100 / 5. 3.100
  11. libswresample 3. 3.100 / 3. 3.100
  12. libpostproc 55. 3.100 / 55. 3.100
  13. Input #0, matroska,webm, from 'D:\Shagun\Yadav Videos\Being Recorded\To Be Uploaded\INA-14(Economics-3) - 28th July.mkv':
  14. Metadata:
  15. ENCODER : Lavf58.20.100
  16. Duration: 02:26:39.85, start: 0.000000, bitrate: 10132 kb/s
  17. Stream #0:0: Video: h264 (Constrained Baseline), yuv420p(progressive), 1364x768, 23.98 fps, 23.98 tbr, 1k tbn, 47.95 tbc (default)
  18. Metadata:
  19. DURATION : 02:26:39.852000000
  20. Stream #0:1: Audio: aac (LC), 48000 Hz, stereo, fltp (default)
  21. Metadata:
  22. title : simple_aac_recording
  23. DURATION : 02:26:39.829000000
  24. Stream mapping:
  25. Stream #0:0 -> #0:0 (h264 (native) -> h264 (libx264))
  26. Stream #0:1 -> #0:1 (aac (native) -> vorbis (libvorbis))
  27. Press [q] to stop, [?] for help
  28. [libx264 @ 00000249fc680140] using cpu capabilities: MMX2 SSE2Fast SSSE3 SSE4.2 AVX FMA3 BMI2 AVX2
  29. [libx264 @ 00000249fc680140] profile Progressive High, level 3.2, 4:2:0, 8-bit
  30. [libx264 @ 00000249fc680140] 264 - core 157 r2970 5493be8 - H.264/MPEG-4 AVC codec - Copyleft 2003-2019 - http://www.videolan.org/x264.html - options: cabac=1 ref=3 deblock=1:0:0 analyse=0x3:0x113 me=hex subme=7 psy=1 psy_rd=1.00:0.00 mixed_ref=1 me_range=16 chroma_me=1 trellis=1 8x8dct=1 cqm=0 deadzone=21,11 fast_pskip=1 chroma_qp_offset=-2 threads=6 lookahead_threads=1 sliced_threads=0 nr=0 decimate=1 interlaced=0 bluray_compat=0 constrained_intra=0 bframes=3 b_pyramid=2 b_adapt=1 b_bias=0 direct=1 weightb=1 open_gop=0 weightp=2 keyint=250 keyint_min=23 scenecut=40 intra_refresh=0 rc_lookahead=40 rc=crf mbtree=1 crf=23.0 qcomp=0.60 qpmin=0 qpmax=69 qpstep=4 ip_ratio=1.40 aq=1:1.00
  31. Output #0, matroska, to 'D:\Shagun\Yadav Videos\Being Recorded\To Be Uploaded\INA-14(Economics-3) - 28th July(FFMPEGed).mkv':
  32. Metadata:
  33. encoder : Lavf58.20.100
  34. Stream #0:0: Video: h264 (libx264) (H264 / 0x34363248), yuv420p, 1364x768, q=-1--1, 23.98 fps, 1k tbn, 23.98 tbc (default)
  35. Metadata:
  36. DURATION : 02:26:39.852000000
  37. encoder : Lavc58.35.100 libx264
  38. Side data:
  39. cpb: bitrate max/min/avg: 0/0/0 buffer size: 0 vbv_delay: -1
  40. Stream #0:1: Audio: vorbis (libvorbis) (oV[0][0] / 0x566F), 48000 Hz, stereo, fltp (default)
  41. Metadata:
  42. title : simple_aac_recording
  43. DURATION : 02:26:39.829000000
  44. encoder : Lavc58.35.100 libvorbis
  45. frame= 2358 fps= 11 q=-1.0 Lsize= 10317kB time=00:01:39.90 bitrate= 846.0kbits/s speed=0.486x
  46. video:9195kB audio:1055kB subtitle:0kB other streams:0kB global headers:4kB muxing overhead: 0.653381%
  47. [libx264 @ 00000249fc680140] frame I:11 Avg QP:17.16 size: 64214
  48. [libx264 @ 00000249fc680140] frame P:961 Avg QP:19.32 size: 6989
  49. [libx264 @ 00000249fc680140] frame B:1386 Avg QP:24.07 size: 1438
  50. [libx264 @ 00000249fc680140] consecutive B-frames: 12.3% 22.1% 17.8% 47.8%
  51. [libx264 @ 00000249fc680140] mb I I16..4: 21.6% 49.2% 29.3%
  52. [libx264 @ 00000249fc680140] mb P I16..4: 1.8% 2.4% 0.4% P16..4: 24.8% 5.9% 3.6% 0.0% 0.0% skip:61.1%
  53. [libx264 @ 00000249fc680140] mb B I16..4: 0.1% 0.3% 0.0% B16..8: 18.3% 0.9% 0.1% direct: 0.3% skip:80.0% L0:40.3% L1:58.0% BI: 1.7%
  54. [libx264 @ 00000249fc680140] 8x8 transform intra:53.3% inter:83.1%
  55. [libx264 @ 00000249fc680140] coded y,uvDC,uvAC intra: 33.0% 53.4% 22.2% inter: 4.2% 7.8% 0.4%
  56. [libx264 @ 00000249fc680140] i16 v,h,dc,p: 36% 32% 13% 19%
  57. [libx264 @ 00000249fc680140] i8 v,h,dc,ddl,ddr,vr,hd,vl,hu: 28% 19% 37% 2% 3% 3% 3% 2% 3%
  58. [libx264 @ 00000249fc680140] i4 v,h,dc,ddl,ddr,vr,hd,vl,hu: 32% 32% 13% 3% 4% 4% 5% 3% 3%
  59. [libx264 @ 00000249fc680140] i8c dc,h,v,p: 54% 25% 18% 3%
  60. [libx264 @ 00000249fc680140] Weighted P-Frames: Y:1.4% UV:0.8%
  61. [libx264 @ 00000249fc680140] ref P L0: 72.0% 7.3% 15.0% 5.6% 0.0%
  62. [libx264 @ 00000249fc680140] ref B L0: 89.2% 9.2% 1.6%
  63. [libx264 @ 00000249fc680140] ref B L1: 97.8% 2.2%
  64. [libx264 @ 00000249fc680140] kb/s:765.87
  65. Exiting normally, received signal 2.
RAW Paste Data