Guest User

Untitled

a guest
Jan 2nd, 2020
183
Never
Not a member of Pastebin yet? Sign Up, it unlocks many cool features!
  1. General
  2. Unique ID : 141119941742944392981717773083523356716 (0x6A2AB64FCF2852AB7422108BBFF3182C)
  3. Complete name : D:The Revenant (2015) BDRip-HEVC 1080p 10bit.mkv
  4. Format : Matroska
  5. Format version : Version 4
  6. File size : 8.89 GiB
  7. Duration : 2 h 36 min
  8. Overall bit rate : 8 110 kb/s
  9. Movie name : The Revenant 2015 from ExKinoRay
  10. Writing application : XviD4PSP 8.0.77
  11. Writing library : Lavf58.20.100
  12. ErrorDetectionType : Per level 1
  13. Attachments : poster
  14. ENCODING_INFO : JPEG > COPY Быстрое
  15. Language : und
  16.  
  17. Video
  18. ID : 1
  19. Format : HEVC
  20. Format/Info : High Efficiency Video Coding
  21. Format profile : Main 10@L5.1@High
  22. Codec ID : V_MPEGH/ISO/HEVC
  23. Duration : 2 h 36 min
  24. Bit rate : 7 053 kb/s
  25. Width : 1 920 pixels
  26. Height : 802 pixels
  27. Display aspect ratio : 2.40:1
  28. Frame rate mode : Constant
  29. Frame rate : 23.976 (24000/1001) FPS
  30. Color space : YUV
  31. Chroma subsampling : 4:2:0
  32. Bit depth : 10 bits
  33. Bits/(Pixel*Frame) : 0.191
  34. Stream size : 7.73 GiB (87%)
  35. Writing library : x265 3.1+11-de920e0a3183:[Windows][clang 8.0.0][64 bit] 10bit
  36. Encoding settings : cpuid=1111039 / frame-threads=13 / numa-pools=12 / wpp / no-pmode / no-pme / no-psnr / no-ssim / log-level=3 / input-csp=1 / input-res=1920x802 / interlace=0 / total-frames=0 / level-idc=51 / high-tier=1 / uhd-bd=0 / ref=4 / allow-non-conformance / no-repeat-headers / annexb / no-aud / no-hrd / info / hash=0 / no-temporal-layers / open-gop / min-keyint=24 / keyint=240 / gop-lookahead=0 / bframes=7 / b-adapt=2 / b-pyramid / bframe-bias=0 / rc-lookahead=60 / lookahead-slices=5 / scenecut=40 / radl=0 / no-splice / no-intra-refresh / ctu=32 / min-cu-size=8 / rect / amp / max-tu-size=32 / tu-inter-depth=4 / tu-intra-depth=4 / limit-tu=1 / rdoq-level=1 / dynamic-rd=0.00 / no-ssim-rd / signhide / no-tskip / nr-intra=0 / nr-inter=0 / no-constrained-intra / no-strong-intra-smoothing / max-merge=5 / limit-refs=1 / no-limit-modes / me=3 / subme=7 / merange=57 / temporal-mvp / no-hme / weightp / weightb / no-analyze-src-pics / deblock=-3:-3 / no-sao / no-sao-non-deblock / rd=6 / early-skip / no-rskip / no-fast-intra / no-tskip-fast / no-cu-lossless / b-intra / no-splitrd-skip / rdpenalty=0 / psy-rd=2.00 / psy-rdoq=1.00 / no-rd-refine / no-lossless / cbqpoffs=0 / crqpoffs=0 / rc=crf / crf=19.0 / qcomp=0.60 / qpstep=4 / stats-write=0 / stats-read=0 / vbv-maxrate=160000 / vbv-bufsize=160000 / vbv-init=0.9 / crf-max=30.0 / crf-min=0.0 / ipratio=1.40 / pbratio=1.30 / aq-mode=1 / aq-strength=1.00 / no-cutree / zone-count=0 / no-strict-cbr / qg-size=32 / no-rc-grain / qpmax=69 / qpmin=0 / no-const-vbv / sar=1 / overscan=0 / videoformat=5 / range=0 / colorprim=1 / transfer=1 / colormatrix=1 / chromaloc=0 / display-window=0cll=0,0 / min-luma=0 / max-luma=1023 / log2-max-poc-lsb=8 / vui-timing-info / vui-hrd-info / slices=1 / no-opt-qp-pps / no-opt-ref-list-length-pps / no-multi-pass-opt-rps / scenecut-bias=0.05 / no-opt-cu-delta-qp / no-aq-motion / no-hdr / no-hdr-opt / no-dhdr10-opt / no-idr-recovery-sei / analysis-reuse-level=5 / scale-factor=0 / refine-intra=0 / refine-inter=0 / refine-mv=0 / refine-ctu-distortion=0 / no-limit-sao / ctu-info=0 / no-lowpass-dct / refine-analysis-type=0 / copy-pic=1 / max-ausize-factor=1.0 / no-dynamic-refine / no-single-sei / no-hevc-aq / no-svt / no-field / qp-adaptation-range=1.00
  37. Language : English
  38. Default : Yes
  39. Forced : No
  40. Color range : Limited
  41. Color primaries : BT.709
  42. Transfer characteristics : BT.709
  43. Matrix coefficients : BT.709
  44. ENCODING_INFO : HEVC > X265 CRF 19.0 Пользовательский
  45.  
  46. Audio #1
  47. ID : 2
  48. Format : AC-3
  49. Format/Info : Audio Coding 3
  50. Commercial name : Dolby Digital
  51. Codec ID : A_AC3
  52. Duration : 2 h 36 min
  53. Bit rate mode : Constant
  54. Bit rate : 448 kb/s
  55. Channel(s) : 6 channels
  56. Channel layout : L R C LFE Ls Rs
  57. Sampling rate : 48.0 kHz
  58. Frame rate : 31.250 FPS (1536 SPF)
  59. Bit depth : 32 bits
  60. Compression mode : Lossy
  61. Stream size : 503 MiB (6%)
  62. Title : Dub [License]
  63. Language : Russian
  64. Service kind : Complete Main
  65. Default : Yes
  66. Forced : No
  67. ENCODING_INFO : AC3 > AC3 CBR 448kbps
  68.  
  69. Audio #2
  70. ID : 3
  71. Format : AC-3
  72. Format/Info : Audio Coding 3
  73. Commercial name : Dolby Digital
  74. Codec ID : A_AC3
  75. Duration : 2 h 36 min
  76. Bit rate mode : Constant
  77. Bit rate : 448 kb/s
  78. Channel(s) : 6 channels
  79. Channel layout : L R C LFE Ls Rs
  80. Sampling rate : 48.0 kHz
  81. Frame rate : 31.250 FPS (1536 SPF)
  82. Bit depth : 32 bits
  83. Compression mode : Lossy
  84. Stream size : 503 MiB (6%)
  85. Title : Original
  86. Language : English
  87. Service kind : Complete Main
  88. Default : No
  89. Forced : No
  90. ENCODING_INFO : DTS-HD MA > AC3 CBR 448kbps
  91.  
  92. Text #1
  93. ID : 4
  94. Format : UTF-8
  95. Codec ID : S_TEXT/UTF8
  96. Codec ID/Info : UTF-8 Plain Text
  97. Title : Forced
  98. Language : Russian
  99. Default : Yes
  100. Forced : No
  101. ENCODING_INFO : SUBRIP > COPY Быстрое
  102.  
  103. Text #2
  104. ID : 5
  105. Format : UTF-8
  106. Codec ID : S_TEXT/UTF8
  107. Codec ID/Info : UTF-8 Plain Text
  108. Title : Full
  109. Language : Russian
  110. Default : No
  111. Forced : No
  112. ENCODING_INFO : SUBRIP > COPY Быстрое
  113.  
  114. Text #3
  115. ID : 6
  116. Format : UTF-8
  117. Codec ID : S_TEXT/UTF8
  118. Codec ID/Info : UTF-8 Plain Text
  119. Title : Full
  120. Language : English
  121. Default : No
  122. Forced : No
  123. ENCODING_INFO : SUBRIP > COPY Быстрое
  124.  
  125. Menu
  126. 00:00:00.000 : :Chapter 1
  127. 00:05:04.846 : :Chapter 2
  128. 00:07:58.311 : :Chapter 3
  129. 00:13:18.965 : :Chapter 4
  130. 00:21:10.686 : :Chapter 5
  131. 00:28:21.658 : :Chapter 6
  132. 00:37:07.767 : :Chapter 7
  133. 00:44:00.346 : :Chapter 8
  134. 00:48:14.975 : :Chapter 9
  135. 00:51:42.266 : :Chapter 10
  136. 00:56:51.033 : :Chapter 11
  137. 00:59:50.754 : :Chapter 12
  138. 01:03:31.766 : :Chapter 13
  139. 01:11:52.433 : :Chapter 14
  140. 01:16:36.133 : :Chapter 15
  141. 01:21:22.377 : :Chapter 16
  142. 01:28:31.139 : :Chapter 17
  143. 01:37:29.969 : :Chapter 18
  144. 01:48:44.643 : :Chapter 19
  145. 01:53:08.782 : :Chapter 20
  146. 01:59:05.930 : :Chapter 21
  147. 02:02:56.703 : :Chapter 22
  148. 02:15:45.262 : :Chapter 23
  149. 02:22:51.021 : :Chapter 24
RAW Paste Data