GrabHD

Untitled

Feb 29th, 2020
112
Never
Not a member of Pastebin yet? Sign Up, it unlocks many cool features!
  1. Общее
  2. Уникальный идентификатор : 167239052175749158806734572962214260508 (0x7DD111E16713F1E5CC588635AAFB2F1C)
  3. Полное имя : R:Dinosaur (2000) BDRip 1080p [HEVC].mkv
  4. Формат : Matroska
  5. Версия формата : Version 4 / Version 2
  6. Размер файла : 4,16 Гбайт
  7. Продолжительность : 1 ч. 22 м.
  8. Общий поток : 7256 Кбит/сек
  9. Название фильма : Dinosaur (2000)
  10. Дата кодирования : UTC 2020-02-28 13:55:12
  11. Программа кодирования : mkvmerge v43.0.0 ('The Quartermaster') 64-bit
  12. Библиотека кодирования : libebml v1.3.10 + libmatroska v1.5.2
  13. Обложка : Yes
  14. Attachments : cover.jpg
  15.  
  16. Видео
  17. Идентификатор : 1
  18. Формат : HEVC
  19. Формат/Информация : High Efficiency Video Coding
  20. Профиль формата : Main 10@L4.1@High
  21. Идентификатор кодека : V_MPEGH/ISO/HEVC
  22. Продолжительность : 1 ч. 21 м.
  23. Битрейт : 5981 Кбит/сек
  24. Ширина : 1920 пикселей
  25. Высота : 1040 пикселей
  26. Соотношение сторон : 1,85:1
  27. Режим частоты кадров : Постоянный
  28. Частота кадров : 23,976 (23976/1000) кадра/сек
  29. Частота кадров в оригинале : 23,976 (24000/1001) кадра/сек
  30. Цветовое пространство : YUV
  31. Субдискретизация насыщенности : 4:2:0
  32. Битовая глубина : 10 бит
  33. Бит/(Пиксели*Кадры) : 0.125
  34. Размер потока : 3,43 Гбайт (82%)
  35. Библиотека кодирования : x265 3.2.1+1-b5c86a64bbbe:[Windows][MSVC 1923][64 bit] 10bit
  36. Настройки программы : cpuid=1111039 / frame-threads=3 / numa-pools=12 / wpp / no-pmode / no-pme / no-psnr / no-ssim / log-level=2 / input-csp=1 / input-res=1920x1040 / interlace=0 / total-frames=108787 / level-idc=41 / high-tier=1 / uhd-bd=0 / ref=5 / no-allow-non-conformance / no-repeat-headers / annexb / no-aud / no-hrd / info / hash=0 / no-temporal-layers / open-gop / min-keyint=23 / keyint=240 / gop-lookahead=0 / bframes=12 / b-adapt=2 / b-pyramid / bframe-bias=0 / rc-lookahead=60 / lookahead-slices=4 / scenecut=40 / radl=0 / no-splice / no-intra-refresh / ctu=32 / min-cu-size=8 / rect / amp / max-tu-size=32 / tu-inter-depth=4 / tu-intra-depth=4 / limit-tu=1 / rdoq-level=2 / dynamic-rd=0.00 / no-ssim-rd / signhide / no-tskip / nr-intra=0 / nr-inter=0 / no-constrained-intra / no-strong-intra-smoothing / max-merge=4 / limit-refs=2 / limit-modes / me=3 / subme=7 / merange=57 / temporal-mvp / no-hme / weightp / weightb / no-analyze-src-pics / deblock=-3:-3 / no-sao / no-sao-non-deblock / rd=6 / selective-sao=0 / no-early-skip / no-rskip / no-fast-intra / no-tskip-fast / no-cu-lossless / no-b-intra / no-splitrd-skip / rdpenalty=0 / psy-rd=2.00 / psy-rdoq=1.00 / no-rd-refine / no-lossless / cbqpoffs=0 / crqpoffs=0 / rc=crf / crf=20.0 / qcomp=0.65 / qpstep=4 / stats-write=0 / stats-read=0 / vbv-maxrate=50000 / vbv-bufsize=50000 / vbv-init=0.9 / crf-max=0.0 / crf-min=0.0 / ipratio=1.40 / pbratio=1.30 / aq-mode=1 / aq-strength=1.00 / no-cutree / zone-count=0 / no-strict-cbr / qg-size=32 / no-rc-grain / qpmax=69 / qpmin=0 / no-const-vbv / sar=1 / overscan=0 / videoformat=5 / range=0 / colorprim=1 / transfer=1 / colormatrix=1 / chromaloc=0 / display-window=0 / cll=0,0 / min-luma=0 / max-luma=1023 / log2-max-poc-lsb=8 / vui-timing-info / vui-hrd-info / slices=1 / no-opt-qp-pps / no-opt-ref-list-length-pps / no-multi-pass-opt-rps / scenecut-bias=0.05 / no-opt-cu-delta-qp / no-aq-motion / no-hdr / no-hdr-opt / no-dhdr10-opt / no-idr-recovery-sei / analysis-reuse-level=5 / scale-factor=0 / refine-intra=0 / refine-inter=0 / refine-mv=1 / refine-ctu-distortion=0 / no-limit-sao / ctu-info=0 / no-lowpass-dct / refine-analysis-type=0 / copy-pic=1 / max-ausize-factor=1.0 / no-dynamic-refine / no-single-sei / no-hevc-aq / no-svt / no-field / qp-adaptation-range=1.00
  37. Default : Да
  38. Forced : Нет
  39. Цветовой диапазон : Limited
  40. Основные цвета : BT.709
  41. Характеристики трансфера : BT.709
  42. Коэффициенты матрицы : BT.709
  43.  
  44. Аудио #1
  45. Идентификатор : 2
  46. Формат : AC-3
  47. Формат/Информация : Audio Coding 3
  48. Идентификатор кодека : A_AC3
  49. Продолжительность : 1 ч. 22 м.
  50. Вид битрейта : Постоянный
  51. Битрейт : 640 Кбит/сек
  52. Каналы : 6 каналов
  53. Расположение каналов : Front: L C R, Side: L R, LFE
  54. Частота : 48,0 КГц
  55. Частота кадров : 31,250 кадров/сек (1536 SPF)
  56. Битовая глубина : 16 бит
  57. Метод сжатия : С потерями
  58. Размер потока : 376 Мбайт (9%)
  59. Заголовок : dubbled
  60. Язык : Russian
  61. ServiceKind/Strin : Complete Main
  62. Default : Да
  63. Forced : Нет
  64.  
  65. Аудио #2
  66. Идентификатор : 3
  67. Формат : AC-3
  68. Формат/Информация : Audio Coding 3
  69. Идентификатор кодека : A_AC3
  70. Продолжительность : 1 ч. 21 м.
  71. Вид битрейта : Постоянный
  72. Битрейт : 640 Кбит/сек
  73. Каналы : 6 каналов
  74. Расположение каналов : Front: L C R, Side: L R, LFE
  75. Частота : 48,0 КГц
  76. Частота кадров : 31,250 кадров/сек (1536 SPF)
  77. Битовая глубина : 16 бит
  78. Метод сжатия : С потерями
  79. Размер потока : 375 Мбайт (9%)
  80. Язык : English
  81. ServiceKind/Strin : Complete Main
  82. Default : Нет
  83. Forced : Нет
  84.  
  85. Текст #1
  86. Идентификатор : 4
  87. Формат : UTF-8
  88. Идентификатор кодека : S_TEXT/UTF8
  89. Идентификатор кодека/Информация : UTF-8 Plain Text
  90. Продолжительность : 1 ч. 14 м.
  91. Битрейт : 52 бит/сек
  92. ElementCount : 527
  93. Размер потока : 29,0 Кбайт (0%)
  94. Язык : Russian
  95. Default : Нет
  96. Forced : Нет
  97.  
  98. Текст #2
  99. Идентификатор : 5
  100. Формат : UTF-8
  101. Идентификатор кодека : S_TEXT/UTF8
  102. Идентификатор кодека/Информация : UTF-8 Plain Text
  103. Продолжительность : 1 ч. 14 м.
  104. Битрейт : 32 бит/сек
  105. ElementCount : 490
  106. Размер потока : 17,6 Кбайт (0%)
  107. Язык : English
  108. Default : Нет
  109. Forced : Нет
  110.  
  111. Меню
  112. 00:00:00.000 : :Глава 1
  113. 00:07:54.557 : :Глава 2
  114. 00:15:49.114 : :Глава 3
  115. 00:23:43.672 : :Глава 4
  116. 00:31:38.271 : :Глава 5
  117. 00:39:26.822 : :Глава 6
  118. 00:47:09.368 : :Глава 7
  119. 00:54:51.955 : :Глава 8
  120. 01:01:46.452 : :Глава 9
  121. 01:08:46.956 : :Глава 10
  122. 01:15:39.535 : :Глава 11
  123. 01:21:59.873 : :Глава 12
RAW Paste Data