Guest User

Untitled

a guest
Jan 21st, 2020
69
Never
Not a member of Pastebin yet? Sign Up, it unlocks many cool features!
  1. x264 [info]: frame I:1435 Avg QP:17.57 size: 57311
  2. x264 [info]: frame P:46556 Avg QP:19.33 size: 23094
  3. x264 [info]: frame B:101762 Avg QP:20.63 size: 7324
  4. x264 [info]: consecutive B-frames: 7.7% 8.3% 15.6% 41.9% 10.9% 10.6% 1.7% 1.5% 0.4% 0.4% 0.3% 0.8%
  5.  
  6. General
  7. Format : Matroska
  8. Format version : Version 4
  9. File size : 2.17 GiB
  10. Duration : 1 h 44 min
  11. Overall bit rate : 2 991 kb/s
  12. Movie name : Сокровище Амазонки.(2003).WEB-DLRip-AVC.O.M.[-=DoMiNo=-]
  13. Encoded date : UTC 2020-01-21 19:52:11
  14. Writing application : mkvmerge v42.0.0 ('Overtime') 64-bit
  15. Writing library : libebml v1.3.10 + libmatroska v1.5.2
  16. Attachments : poster.jpg / poster 2.jpg
  17.  
  18. Video
  19. ID : 1
  20. Format : AVC
  21. Format/Info : Advanced Video Codec
  22. Format profile : High@L4.1
  23. Format settings : CABAC / 12 Ref Frames
  24. Format settings, CABAC : Yes
  25. Format settings, Reference : 12 frames
  26. Codec ID : V_MPEG4/ISO/AVC
  27. Duration : 1 h 44 min
  28. Bit rate : 2 546 kb/s
  29. Width : 1 024 pixels
  30. Height : 576 pixels
  31. Display aspect ratio : 16:9
  32. Frame rate mode : Constant
  33. Frame rate : 23.976 (24000/1001) FPS
  34. Color space : YUV
  35. Chroma subsampling : 4:2:0
  36. Bit depth : 8 bits
  37. Scan type : Progressive
  38. Bits/(Pixel*Frame) : 0.180
  39. Stream size : 1.85 GiB (85%)
  40. Title : RIP_BY_-=DoMiNo=-
  41. Writing library : x264 core 152 r2851kMod ba24899
  42. Encoding settings : cabac=1 / ref=12 / deblock=1:-2:-2 / analyse=0x3:0x133 / me=umh / subme=11 / psy=1 / fade_compensate=0.00 / psy_rd=1.00:0.10 / mixed_ref=1 / me_range=32 / chroma_me=1 / trellis=2 / 8x8dct=1 / cqm=0 / deadzone=21,11 / fast_pskip=0 / chroma_qp_offset=-3 / threads=6 / lookahead_threads=1 / sliced_threads=0 / nr=0 / decimate=0 / interlaced=0 / bluray_compat=0 / constrained_intra=0 / bframes=11 / b_pyramid=2 / b_adapt=2 / b_bias=0 / direct=3 / weightb=1 / open_gop=0 / weightp=2 / keyint=250 / keyint_min=23 / scenecut=40 / intra_refresh=0 / rc=2pass / mbtree=0 / bitrate=2546 / ratetol=1.0 / qcomp=0.70 / qpmin=0 / qpmax=69 / qpstep=4 / cplxblur=20.0 / qblur=0.5 / ip_ratio=1.40 / pb_ratio=1.30 / aq=1:0.90
  43. Language : English
  44. Default : Yes
  45. Forced : No
  46. Color range : Limited
  47. Color primaries : BT.709
  48. Transfer characteristics : BT.709
  49. Matrix coefficients : BT.709
  50.  
  51. Audio
  52. ID : 2
  53. Format : AC-3
  54. Format/Info : Audio Coding 3
  55. Commercial name : Dolby Digital
  56. Codec ID : A_AC3
  57. Duration : 1 h 44 min
  58. Bit rate mode : Constant
  59. Bit rate : 448 kb/s
  60. Channel(s) : 6 channels
  61. Channel layout : L R C LFE Ls Rs
  62. Sampling rate : 48.0 kHz
  63. Frame rate : 31.250 FPS (1536 SPF)
  64. Compression mode : Lossy
  65. Stream size : 334 MiB (15%)
  66. Title : DUB
  67. Language : Russian
  68. Service kind : Complete Main
  69. Default : Yes
  70. Forced : No
  71.  
  72. Text #1
  73. ID : 3
  74. Format : UTF-8
  75. Codec ID : S_TEXT/UTF8
  76. Codec ID/Info : UTF-8 Plain Text
  77. Duration : 1 h 36 min
  78. Bit rate : 82 b/s
  79. Count of elements : 1068
  80. Stream size : 58.8 KiB (0%)
  81. Language : Russian
  82. Default : No
  83. Forced : No
  84.  
  85. Text #2
  86. ID : 4
  87. Format : UTF-8
  88. Codec ID : S_TEXT/UTF8
  89. Codec ID/Info : UTF-8 Plain Text
  90. Duration : 1 h 37 min
  91. Bit rate : 55 b/s
  92. Count of elements : 1059
  93. Stream size : 39.7 KiB (0%)
  94. Language : English
  95. Default : No
  96. Forced : No
  97.  
  98. Menu
  99. 00:00:00.000 : :Глава 01
  100. 00:05:30.000 : :Глава 02
  101. 00:11:00.000 : :Глава 03
  102. 00:16:30.000 : :Глава 04
  103. 00:22:00.000 : :Глава 05
  104. 00:27:30.000 : :Глава 06
  105. 00:33:00.000 : :Глава 07
  106. 00:38:30.000 : :Глава 08
  107. 00:44:00.000 : :Глава 09
  108. 00:49:30.000 : :Глава 10
  109. 00:55:00.000 : :Глава 11
  110. 01:00:30.000 : :Глава 12
  111. 01:06:00.000 : :Глава 13
  112. 01:11:30.000 : :Глава 14
  113. 01:17:00.000 : :Глава 15
  114. 01:22:30.000 : :Глава 16
  115. 01:28:00.000 : :Глава 17
  116. 01:33:30.000 : :Глава 18
  117. 01:39:00.000 : :Глава 19
RAW Paste Data

Adblocker detected! Please consider disabling it...

We've detected AdBlock Plus or some other adblocking software preventing Pastebin.com from fully loading.

We don't have any obnoxious sound, or popup ads, we actively block these annoying types of ads!

Please add Pastebin.com to your ad blocker whitelist or disable your adblocking software.

×