Secasa

diver

Sep 1st, 2014
212
Never
Not a member of Pastebin yet? Sign Up, it unlocks many cool features!
  1. Format : Matroska
  2. Format version : Version 2
  3. File size : 10.5 GiB
  4. Duration : 2h 19mn
  5. Overall bit rate : 10.7 Mbps
  6. Encoded date : UTC 2014-09-01 13:09:38
  7. Writing application : mkvmerge v4.8.0 ('I Got The...') creado el May 24 2011 03:12:58
  8. Writing library : libebml v1.2.0 + libmatroska v1.1.0
  9.  
  10. Video
  11. ID : 1
  12. Format : AVC
  13. Format/Info : Advanced Video Codec
  14. Format profile : High@L4.1
  15. Format settings, CABAC : Yes
  16. Format settings, ReFrames : 5 frames
  17. Codec ID : V_MPEG4/ISO/AVC
  18. Duration : 2h 19mn
  19. Bit rate : 8 571 Kbps
  20. Width : 1 920 pixels
  21. Height : 800 pixels
  22. Display aspect ratio : 2.40:1
  23. Frame rate mode : Constant
  24. Frame rate : 23.976 fps
  25. Color space : YUV
  26. Chroma subsampling : 4:2:0
  27. Bit depth : 8 bits
  28. Scan type : Progressive
  29. Bits/(Pixel*Frame) : 0.233
  30. Stream size : 8.15 GiB (78%)
  31. Writing library : x264 core 142 r2431 ac76440
  32. Encoding settings : cabac=1 / ref=5 / deblock=1:0:0 / analyse=0x3:0x133 / me=umh / subme=7 / psy=1 / psy_rd=1.00:0.00 / mixed_ref=1 / me_range=16 / chroma_me=1 / trellis=1 / 8x8dct=1 / cqm=0 / deadzone=21,11 / fast_pskip=0 / chroma_qp_offset=-2 / threads=18 / lookahead_threads=3 / sliced_threads=0 / nr=0 / decimate=1 / interlaced=0 / bluray_compat=0 / constrained_intra=0 / bframes=3 / b_pyramid=2 / b_adapt=1 / b_bias=0 / direct=1 / weightb=1 / open_gop=0 / weightp=2 / keyint=250 / keyint_min=23 / scenecut=40 / intra_refresh=0 / rc_lookahead=40 / rc=2pass / mbtree=1 / bitrate=8571 / ratetol=1.0 / qcomp=0.60 / qpmin=0 / qpmax=69 / qpstep=4 / cplxblur=20.0 / qblur=0.5 / ip_ratio=1.40 / aq=1:1.00
  33. Language : English
  34. Default : Yes
  35. Forced : No
  36.  
  37. Audio #1
  38. ID : 2
  39. Format : AC-3
  40. Format/Info : Audio Coding 3
  41. Mode extension : CM (complete main)
  42. Format settings, Endianness : Big
  43. Codec ID : A_AC3
  44. Duration : 2h 19mn
  45. Bit rate mode : Constant
  46. Bit rate : 640 Kbps
  47. Channel count : 6 channels
  48. Channel positions : Front: L C R, Side: L R, LFE
  49. Sampling rate : 48.0 KHz
  50. Bit depth : 16 bits
  51. Compression mode : Lossy
  52. Stream size : 639 MiB (6%)
  53. Language : Spanish
  54. Default : Yes
  55. Forced : No
  56.  
  57. Audio #2
  58. ID : 3
  59. Format : DTS
  60. Format/Info : Digital Theater Systems
  61. Mode : 16
  62. Format settings, Endianness : Big
  63. Codec ID : A_DTS
  64. Duration : 2h 19mn
  65. Bit rate mode : Constant
  66. Bit rate : 1 509 Kbps
  67. Channel count : 6 channels
  68. Channel positions : Front: L C R, Side: L R, LFE
  69. Sampling rate : 48.0 KHz
  70. Bit depth : 24 bits
  71. Compression mode : Lossy
  72. Delay relative to video : 22ms
  73. Stream size : 1.47 GiB (14%)
  74. Language : English
  75. Default : No
  76. Forced : No
  77.  
  78. Text #1
  79. ID : 4
  80. Format : UTF-8
  81. Codec ID : S_TEXT/UTF8
  82. Codec ID/Info : UTF-8 Plain Text
  83. Language : Spanish
  84. Default : No
  85. Forced : No
  86.  
  87. Text #2
  88. ID : 5
  89. Format : UTF-8
  90. Codec ID : S_TEXT/UTF8
  91. Codec ID/Info : UTF-8 Plain Text
  92. Language : Spanish
  93. Default : No
  94. Forced : No
  95.  
  96. Menu
  97. 00:00:00.000 : en:00:00:00.000
  98. 00:07:57.477 : en:00:07:57.477
  99. 00:15:29.595 : en:00:15:29.595
  100. 00:23:31.035 : en:00:23:31.035
  101. 00:33:56.618 : en:00:33:56.618
  102. 00:38:52.956 : en:00:38:52.956
  103. 00:44:24.328 : en:00:44:24.328
  104. 00:53:37.506 : en:00:53:37.506
  105. 01:00:02.682 : en:01:00:02.682
  106. 01:06:32.071 : en:01:06:32.071
  107. 01:13:19.603 : en:01:13:19.603
  108. 01:20:08.137 : en:01:20:08.137
  109. 01:28:41.441 : en:01:28:41.441
  110. 01:35:54.957 : en:01:35:54.957
  111. 01:46:19.373 : en:01:46:19.373
  112. 01:57:54.692 : en:01:57:54.692
RAW Paste Data

Adblocker detected! Please consider disabling it...

We've detected AdBlock Plus or some other adblocking software preventing Pastebin.com from fully loading.

We don't have any obnoxious sound, or popup ads, we actively block these annoying types of ads!

Please add Pastebin.com to your ad blocker whitelist or disable your adblocking software.

×