SHARE
TWEET

nfo

termnlencodes Nov 8th, 2019 285 Never
Not a member of Pastebin yet? Sign Up, it unlocks many cool features!
  1. General
  2. Unique ID                                : 170317147675604360780278212481928249740 (0x8021E3B4A3FEE387BB9D0D2EA719C18C)
  3. Complete name                            : C:\Termnl\Series\Marvel Television's MCU (2013)\Netflix (2019)\Marvel's The Punisher (2017)\Season 01\Marvel's The Punisher (2017) - S01E01 - 3 AM (1080p WEBRip x265 10bit Joy).mkv
  4. Format                                   : Matroska
  5. Format version                           : Version 4
  6. File size                                : 521 MiB
  7. Duration                                 : 51 min 23 s
  8. Overall bit rate                         : 1 417 kb/s
  9. Encoded date                             : UTC 2018-01-03 23:19:03
  10. Writing application                      : mkvmerge v16.0.0 ('Protest') 64-bit
  11. Writing library                          : libebml v1.3.5 + libmatroska v1.4.8
  12. Writing frontend                         : StaxRip v1.7.0.3
  13.  
  14. Video
  15. ID                                       : 1
  16. Format                                   : HEVC
  17. Format/Info                              : High Efficiency Video Coding
  18. Format profile                           : Main 10@L4@Main
  19. Codec ID                                 : V_MPEGH/ISO/HEVC
  20. Duration                                 : 51 min 23 s
  21. Bit rate                                 : 1 203 kb/s
  22. Width                                    : 1 920 pixels
  23. Height                                   : 1 080 pixels
  24. Display aspect ratio                     : 16:9
  25. Frame rate mode                          : Constant
  26. Frame rate                               : 23.976 (24000/1001) FPS
  27. Color space                              : YUV
  28. Chroma subsampling                       : 4:2:0
  29. Bit depth                                : 10 bits
  30. Bits/(Pixel*Frame)                       : 0.024
  31. Stream size                              : 442 MiB (85%)
  32. Writing library                          : x265 2.5+31-df2de6ea407d:[Windows][MSVC 1911][64 bit] 10bit
  33. Encoding settings                        : cpuid=1173503 / frame-threads=2 / numa-pools=4 / wpp / no-pmode / no-pme / no-psnr / ssim / log-level=2 / input-csp=1 / input-res=1920x1080 / interlace=0 / total-frames=73929 / level-idc=0 / high-tier=1 / uhd-bd=0 / ref=4 / no-allow-non-conformance / no-repeat-headers / annexb / no-aud / no-hrd / info / hash=0 / no-temporal-layers / open-gop / min-keyint=23 / keyint=250 / bframes=4 / b-adapt=2 / b-pyramid / bframe-bias=0 / rc-lookahead=25 / lookahead-slices=4 / scenecut=40 / no-intra-refresh / ctu=64 / min-cu-size=8 / rect / no-amp / max-tu-size=32 / tu-inter-depth=1 / tu-intra-depth=1 / limit-tu=0 / rdoq-level=2 / dynamic-rd=0.00 / ssim-rd / signhide / no-tskip / nr-intra=0 / nr-inter=0 / no-constrained-intra / strong-intra-smoothing / max-merge=3 / limit-refs=3 / limit-modes / me=3 / subme=3 / merange=57 / temporal-mvp / weightp / no-weightb / no-analyze-src-pics / deblock=0:0 / sao / sao-non-deblock / rd=4 / no-early-skip / rskip / no-fast-intra / no-tskip-fast / no-cu-lossless / b-intra / no-splitrd-skip / rdpenalty=0 / psy-rd=0.00 / psy-rdoq=1.00 / no-rd-refine / analysis-reuse-mode=0 / no-lossless / cbqpoffs=0 / crqpoffs=0 / rc=abr / bitrate=1200 / qcomp=0.60 / qpstep=4 / stats-write=0 / stats-read=2 / cplxblur=20.0 / qblur=0.5 / ipratio=1.40 / pbratio=1.30 / aq-mode=2 / aq-strength=1.00 / cutree / zone-count=0 / no-strict-cbr / qg-size=32 / no-rc-grain / qpmax=69 / qpmin=0 / no-const-vbv / sar=0 / overscan=0 / videoformat=5 / range=0 / colorprim=2 / transfer=2 / colormatrix=2 / chromaloc=0 / display-window=0 / max-cll=0,0 / min-luma=0 / max-luma=1023 / log2-max-poc-lsb=8 / vui-timing-info / vui-hrd-info / slices=1 / opt-qp-pps / opt-ref-list-length-pps / multi-pass-opt-rps / scenecut-bias=0.05 / no-opt-cu-delta-qp / no-aq-motion / no-hdr / no-hdr-opt / no-dhdr10-opt / analysis-reuse-level=5 / scale-factor=0 / refine-intra=0 / refine-inter=0 / refine-mv=0 / limit-sao / ctu-info=0
  34. Default                                  : Yes
  35. Forced                                   : No
  36.  
  37. Audio
  38. ID                                       : 2
  39. Format                                   : AAC LC SBR
  40. Format/Info                              : Advanced Audio Codec Low Complexity with Spectral Band Replication
  41. Commercial name                          : HE-AAC
  42. Format settings                          : Explicit
  43. Codec ID                                 : A_AAC-2
  44. Duration                                 : 51 min 23 s
  45. Bit rate                                 : 212 kb/s
  46. Channel(s)                               : 6 channels
  47. Channel layout                           : C L R Ls Rs LFE
  48. Sampling rate                            : 48.0 kHz
  49. Frame rate                               : 23.438 FPS (2048 SPF)
  50. Compression mode                         : Lossy
  51. Delay relative to video                  : 31 ms
  52. Stream size                              : 77.9 MiB (15%)
  53. Language                                 : English
  54. Default                                  : Yes
  55. Forced                                   : No
  56.  
  57. Text #1
  58. ID                                       : 3
  59. Format                                   : UTF-8
  60. Codec ID                                 : S_TEXT/UTF8
  61. Codec ID/Info                            : UTF-8 Plain Text
  62. Duration                                 : 21 s 439 ms
  63. Bit rate                                 : 83 b/s
  64. Count of elements                        : 6
  65. Stream size                              : 224 Bytes (0%)
  66. Language                                 : English
  67. Default                                  : No
  68. Forced                                   : Yes
  69.  
  70. Text #2
  71. ID                                       : 4
  72. Format                                   : UTF-8
  73. Codec ID                                 : S_TEXT/UTF8
  74. Codec ID/Info                            : UTF-8 Plain Text
  75. Duration                                 : 49 min 1 s
  76. Bit rate                                 : 69 b/s
  77. Count of elements                        : 730
  78. Stream size                              : 24.9 KiB (0%)
  79. Language                                 : English
  80. Default                                  : No
  81. Forced                                   : No
  82.  
  83. Text #3
  84. ID                                       : 5
  85. Format                                   : UTF-8
  86. Codec ID                                 : S_TEXT/UTF8
  87. Codec ID/Info                            : UTF-8 Plain Text
  88. Duration                                 : 50 min 0 s
  89. Bit rate                                 : 50 b/s
  90. Count of elements                        : 582
  91. Stream size                              : 18.6 KiB (0%)
  92. Language                                 : Spanish
  93. Default                                  : No
  94. Forced                                   : No
  95.  
  96. Text #4
  97. ID                                       : 6
  98. Format                                   : UTF-8
  99. Codec ID                                 : S_TEXT/UTF8
  100. Codec ID/Info                            : UTF-8 Plain Text
  101. Duration                                 : 50 min 5 s
  102. Bit rate                                 : 53 b/s
  103. Count of elements                        : 570
  104. Stream size                              : 19.6 KiB (0%)
  105. Language                                 : French
  106. Default                                  : No
  107. Forced                                   : No
  108.  
  109. Text #5
  110. ID                                       : 7
  111. Format                                   : UTF-8
  112. Codec ID                                 : S_TEXT/UTF8
  113. Codec ID/Info                            : UTF-8 Plain Text
  114. Duration                                 : 50 min 0 s
  115. Bit rate                                 : 48 b/s
  116. Count of elements                        : 593
  117. Stream size                              : 17.7 KiB (0%)
  118. Language                                 : Chinese
  119. Default                                  : No
  120. Forced                                   : No
  121.  
  122. Text #6
  123. ID                                       : 8
  124. Format                                   : UTF-8
  125. Codec ID                                 : S_TEXT/UTF8
  126. Codec ID/Info                            : UTF-8 Plain Text
  127. Duration                                 : 50 min 0 s
  128. Bit rate                                 : 48 b/s
  129. Count of elements                        : 593
  130. Stream size                              : 17.8 KiB (0%)
  131. Language                                 : Chinese
  132. Default                                  : No
  133. Forced                                   : No
RAW Paste Data
We use cookies for various purposes including analytics. By continuing to use Pastebin, you agree to our use of cookies as described in the Cookies Policy. OK, I Understand
 
Top