Advertisement
Guest User

Untitled

a guest
Dec 30th, 2016
161
Never
Not a member of Pastebin yet? Sign Up, it unlocks many cool features!
text 9.80 KB | None
  1. ffmpeg version N-82966-g6993bb4 Copyright (c) 2000-2016 the FFmpeg developers
  2. built with gcc 5.4.0 (GCC)
  3. configuration: --enable-gpl --enable-version3 --enable-dxva2 --enable-libmfx --enable-nvenc --enable-avisynth --enable-bzlib --enable-fontconfig --enable-frei0r --enable-gnutls --enable-iconv --enable-libass --enable-libbluray --enable-libbs2b --enable-libcaca --enable-libfreetype --enable-libgme --enable-libgsm --enable-libilbc --enable-libmodplug --enable-libmp3lame --enable-libopencore-amrnb --enable-libopencore-amrwb --enable-libopenh264 --enable-libopenjpeg --enable-libopus --enable-librtmp --enable-libsnappy --enable-libsoxr --enable-libspeex --enable-libtheora --enable-libtwolame --enable-libvidstab --enable-libvo-amrwbenc --enable-libvorbis --enable-libvpx --enable-libwavpack --enable-libwebp --enable-libx264 --enable-libx265 --enable-libxavs --enable-libxvid --enable-libzimg --enable-lzma --enable-decklink --enable-zlib
  4. libavutil 55. 43.100 / 55. 43.100
  5. libavcodec 57. 70.100 / 57. 70.100
  6. libavformat 57. 61.100 / 57. 61.100
  7. libavdevice 57. 2.100 / 57. 2.100
  8. libavfilter 6. 68.100 / 6. 68.100
  9. libswscale 4. 3.101 / 4. 3.101
  10. libswresample 2. 4.100 / 2. 4.100
  11. libpostproc 54. 2.100 / 54. 2.100
  12. Input #0, matroska,webm, from 'SVT_1080p50.mkv':
  13. Metadata:
  14. title : SVT_1080p50
  15. encoder : libebml v1.2.2 + libmatroska v1.3.0
  16. creation_time : 2011-10-23T14:54:54.000000Z
  17. Duration: 00:00:50.00, start: 0.000000, bitrate: 29006 kb/s
  18. Stream #0:0: Video: h264 (High), yuv420p(progressive), 1920x1080 [SAR 1:1 DAR 16:9], 50 fps, 50 tbr, 1k tbn, 100 tbc (default)
  19. Input #1, matroska,webm, from 'result.mkv':
  20. Metadata:
  21. ENCODER : Lavf57.48.101
  22. Duration: 00:00:50.00, start: 0.000000, bitrate: 4986 kb/s
  23. Stream #1:0: Video: hevc (Main), yuv420p(tv, progressive), 1920x1080 [SAR 1:1 DAR 16:9], 1k fps, 50 tbr, 1k tbn, 50 tbc (default)
  24. Metadata:
  25. DURATION : 00:00:50.000000000
  26. Output #0, null, to 'pipe:':
  27. Metadata:
  28. title : SVT_1080p50
  29. encoder : Lavf57.61.100
  30. Stream #0:0: Video: wrapped_avframe, yuv420p, 1920x1080 [SAR 1:1 DAR 16:9], q=2-31, 200 kb/s, 50 fps, 50 tbn, 50 tbc
  31. Metadata:
  32. encoder : Lavc57.70.100 wrapped_avframe
  33. Stream #0:1: Video: wrapped_avframe, yuv420p, 1920x1080 [SAR 1:1 DAR 16:9], q=2-31, 200 kb/s, 50 fps, 50 tbn, 50 tbc
  34. Metadata:
  35. encoder : Lavc57.70.100 wrapped_avframe
  36. Stream mapping:
  37. Stream #0:0 (h264) -> ssim:main
  38. Stream #0:0 (h264) -> psnr:main
  39. Stream #1:0 (hevc) -> ssim:reference
  40. Stream #1:0 (hevc) -> psnr:reference
  41. ssim -> Stream #0:0 (wrapped_avframe)
  42. psnr -> Stream #0:1 (wrapped_avframe)
  43. Press [q] to stop, [?] for help
  44. frame= 23 fps=0.0 q=-0.0 q=-0.0 size=N/A time=00:00:00.46 bitrate=N/A speed=0.92x
  45. frame= 52 fps= 52 q=-0.0 q=-0.0 size=N/A time=00:00:01.04 bitrate=N/A speed=1.04x
  46. frame= 85 fps= 56 q=-0.0 q=-0.0 size=N/A time=00:00:01.70 bitrate=N/A speed=1.12x
  47. frame= 118 fps= 59 q=-0.0 q=-0.0 size=N/A time=00:00:02.36 bitrate=N/A speed=1.17x
  48. frame= 149 fps= 59 q=-0.0 q=-0.0 size=N/A time=00:00:02.98 bitrate=N/A speed=1.18x
  49. frame= 181 fps= 60 q=-0.0 q=-0.0 size=N/A time=00:00:03.62 bitrate=N/A speed=1.19x
  50. frame= 212 fps= 60 q=-0.0 q=-0.0 size=N/A time=00:00:04.24 bitrate=N/A speed= 1.2x
  51. frame= 243 fps= 60 q=-0.0 q=-0.0 size=N/A time=00:00:04.86 bitrate=N/A speed= 1.2x
  52. frame= 275 fps= 60 q=-0.0 q=-0.0 size=N/A time=00:00:05.50 bitrate=N/A speed=1.21x
  53. frame= 306 fps= 60 q=-0.0 q=-0.0 size=N/A time=00:00:06.12 bitrate=N/A speed=1.21x
  54. frame= 338 fps= 61 q=-0.0 q=-0.0 size=N/A time=00:00:06.76 bitrate=N/A speed=1.22x
  55. frame= 369 fps= 61 q=-0.0 q=-0.0 size=N/A time=00:00:07.38 bitrate=N/A speed=1.21x
  56. frame= 401 fps= 61 q=-0.0 q=-0.0 size=N/A time=00:00:08.02 bitrate=N/A speed=1.21x
  57. frame= 433 fps= 60 q=-0.0 q=-0.0 size=N/A time=00:00:08.66 bitrate=N/A speed=1.21x
  58. frame= 464 fps= 60 q=-0.0 q=-0.0 size=N/A time=00:00:09.28 bitrate=N/A speed= 1.2x
  59. frame= 493 fps= 60 q=-0.0 q=-0.0 size=N/A time=00:00:09.86 bitrate=N/A speed= 1.2x
  60. frame= 526 fps= 60 q=-0.0 q=-0.0 size=N/A time=00:00:10.52 bitrate=N/A speed=1.21x
  61. frame= 557 fps= 60 q=-0.0 q=-0.0 size=N/A time=00:00:11.14 bitrate=N/A speed=1.21x
  62. frame= 585 fps= 60 q=-0.0 q=-0.0 size=N/A time=00:00:11.70 bitrate=N/A speed= 1.2x
  63. frame= 613 fps= 60 q=-0.0 q=-0.0 size=N/A time=00:00:12.26 bitrate=N/A speed= 1.2x
  64. frame= 635 fps= 59 q=-0.0 q=-0.0 size=N/A time=00:00:12.70 bitrate=N/A speed=1.18x
  65. frame= 661 fps= 59 q=-0.0 q=-0.0 size=N/A time=00:00:13.22 bitrate=N/A speed=1.18x
  66. frame= 689 fps= 59 q=-0.0 q=-0.0 size=N/A time=00:00:13.78 bitrate=N/A speed=1.17x
  67. frame= 719 fps= 59 q=-0.0 q=-0.0 size=N/A time=00:00:14.38 bitrate=N/A speed=1.18x
  68. frame= 746 fps= 59 q=-0.0 q=-0.0 size=N/A time=00:00:14.92 bitrate=N/A speed=1.17x
  69. frame= 774 fps= 58 q=-0.0 q=-0.0 size=N/A time=00:00:15.48 bitrate=N/A speed=1.17x
  70. frame= 803 fps= 58 q=-0.0 q=-0.0 size=N/A time=00:00:16.06 bitrate=N/A speed=1.17x
  71. frame= 832 fps= 58 q=-0.0 q=-0.0 size=N/A time=00:00:16.64 bitrate=N/A speed=1.17x
  72. frame= 863 fps= 58 q=-0.0 q=-0.0 size=N/A time=00:00:17.26 bitrate=N/A speed=1.17x
  73. frame= 893 fps= 58 q=-0.0 q=-0.0 size=N/A time=00:00:17.86 bitrate=N/A speed=1.17x
  74. frame= 928 fps= 59 q=-0.0 q=-0.0 size=N/A time=00:00:18.56 bitrate=N/A speed=1.17x
  75. frame= 963 fps= 59 q=-0.0 q=-0.0 size=N/A time=00:00:19.26 bitrate=N/A speed=1.18x
  76. frame= 1000 fps= 59 q=-0.0 q=-0.0 size=N/A time=00:00:20.00 bitrate=N/A speed=1.19x
  77. frame= 1030 fps= 59 q=-0.0 q=-0.0 size=N/A time=00:00:20.60 bitrate=N/A speed=1.19x
  78. frame= 1062 fps= 60 q=-0.0 q=-0.0 size=N/A time=00:00:21.24 bitrate=N/A speed=1.19x
  79. frame= 1090 fps= 59 q=-0.0 q=-0.0 size=N/A time=00:00:21.80 bitrate=N/A speed=1.19x
  80. frame= 1117 fps= 59 q=-0.0 q=-0.0 size=N/A time=00:00:22.34 bitrate=N/A speed=1.19x
  81. frame= 1145 fps= 59 q=-0.0 q=-0.0 size=N/A time=00:00:22.90 bitrate=N/A speed=1.18x
  82. frame= 1169 fps= 59 q=-0.0 q=-0.0 size=N/A time=00:00:23.38 bitrate=N/A speed=1.18x
  83. frame= 1197 fps= 59 q=-0.0 q=-0.0 size=N/A time=00:00:23.94 bitrate=N/A speed=1.17x
  84. frame= 1224 fps= 59 q=-0.0 q=-0.0 size=N/A time=00:00:24.48 bitrate=N/A speed=1.17x
  85. frame= 1249 fps= 58 q=-0.0 q=-0.0 size=N/A time=00:00:24.98 bitrate=N/A speed=1.17x
  86. frame= 1277 fps= 58 q=-0.0 q=-0.0 size=N/A time=00:00:25.54 bitrate=N/A speed=1.16x
  87. frame= 1305 fps= 58 q=-0.0 q=-0.0 size=N/A time=00:00:26.10 bitrate=N/A speed=1.16x
  88. frame= 1332 fps= 58 q=-0.0 q=-0.0 size=N/A time=00:00:26.64 bitrate=N/A speed=1.16x
  89. frame= 1357 fps= 58 q=-0.0 q=-0.0 size=N/A time=00:00:27.14 bitrate=N/A speed=1.16x
  90. frame= 1386 fps= 58 q=-0.0 q=-0.0 size=N/A time=00:00:27.72 bitrate=N/A speed=1.16x
  91. frame= 1417 fps= 58 q=-0.0 q=-0.0 size=N/A time=00:00:28.34 bitrate=N/A speed=1.16x
  92. frame= 1445 fps= 58 q=-0.0 q=-0.0 size=N/A time=00:00:28.90 bitrate=N/A speed=1.16x
  93. frame= 1477 fps= 58 q=-0.0 q=-0.0 size=N/A time=00:00:29.54 bitrate=N/A speed=1.16x
  94. frame= 1512 fps= 58 q=-0.0 q=-0.0 size=N/A time=00:00:30.24 bitrate=N/A speed=1.17x
  95. frame= 1553 fps= 59 q=-0.0 q=-0.0 size=N/A time=00:00:31.06 bitrate=N/A speed=1.17x
  96. frame= 1593 fps= 59 q=-0.0 q=-0.0 size=N/A time=00:00:31.86 bitrate=N/A speed=1.18x
  97. frame= 1634 fps= 59 q=-0.0 q=-0.0 size=N/A time=00:00:32.68 bitrate=N/A speed=1.19x
  98. frame= 1672 fps= 60 q=-0.0 q=-0.0 size=N/A time=00:00:33.44 bitrate=N/A speed= 1.2x
  99. frame= 1711 fps= 60 q=-0.0 q=-0.0 size=N/A time=00:00:34.22 bitrate=N/A speed= 1.2x
  100. frame= 1751 fps= 60 q=-0.0 q=-0.0 size=N/A time=00:00:35.02 bitrate=N/A speed=1.21x
  101. frame= 1787 fps= 61 q=-0.0 q=-0.0 size=N/A time=00:00:35.74 bitrate=N/A speed=1.21x
  102. frame= 1826 fps= 61 q=-0.0 q=-0.0 size=N/A time=00:00:36.52 bitrate=N/A speed=1.22x
  103. frame= 1861 fps= 61 q=-0.0 q=-0.0 size=N/A time=00:00:37.22 bitrate=N/A speed=1.22x
  104. frame= 1897 fps= 61 q=-0.0 q=-0.0 size=N/A time=00:00:37.94 bitrate=N/A speed=1.22x
  105. frame= 1933 fps= 61 q=-0.0 q=-0.0 size=N/A time=00:00:38.66 bitrate=N/A speed=1.23x
  106. frame= 1969 fps= 61 q=-0.0 q=-0.0 size=N/A time=00:00:39.38 bitrate=N/A speed=1.23x
  107. frame= 2005 fps= 62 q=-0.0 q=-0.0 size=N/A time=00:00:40.10 bitrate=N/A speed=1.23x
  108. frame= 2049 fps= 62 q=-0.0 q=-0.0 size=N/A time=00:00:40.98 bitrate=N/A speed=1.24x
  109. frame= 2089 fps= 62 q=-0.0 q=-0.0 size=N/A time=00:00:41.78 bitrate=N/A speed=1.25x
  110. frame= 2131 fps= 63 q=-0.0 q=-0.0 size=N/A time=00:00:42.62 bitrate=N/A speed=1.25x
  111. frame= 2172 fps= 63 q=-0.0 q=-0.0 size=N/A time=00:00:43.44 bitrate=N/A speed=1.26x
  112. frame= 2213 fps= 63 q=-0.0 q=-0.0 size=N/A time=00:00:44.26 bitrate=N/A speed=1.26x
  113. frame= 2253 fps= 63 q=-0.0 q=-0.0 size=N/A time=00:00:45.06 bitrate=N/A speed=1.27x
  114. frame= 2290 fps= 64 q=-0.0 q=-0.0 size=N/A time=00:00:45.80 bitrate=N/A speed=1.27x
  115. frame= 2326 fps= 64 q=-0.0 q=-0.0 size=N/A time=00:00:46.52 bitrate=N/A speed=1.27x
  116. frame= 2365 fps= 64 q=-0.0 q=-0.0 size=N/A time=00:00:47.30 bitrate=N/A speed=1.28x
  117. frame= 2401 fps= 64 q=-0.0 q=-0.0 size=N/A time=00:00:48.02 bitrate=N/A speed=1.28x
  118. frame= 2437 fps= 64 q=-0.0 q=-0.0 size=N/A time=00:00:48.74 bitrate=N/A speed=1.28x
  119. frame= 2470 fps= 64 q=-0.0 q=-0.0 size=N/A time=00:00:49.40 bitrate=N/A speed=1.28x
  120. frame= 2500 fps= 64 q=-0.0 Lq=-0.0 size=N/A time=00:00:50.00 bitrate=N/A speed=1.28x
  121. video:2383kB audio:0kB subtitle:0kB other streams:0kB global headers:0kB muxing overhead: unknown
  122. [Parsed_ssim_0 @ 00000000024a5ac0] SSIM Y:0.837526 (7.892162) U:0.902049 (10.089931) V:0.940108 (12.226284) All:0.865377 (8.708804)
  123. [Parsed_psnr_1 @ 000000000264c9c0] PSNR y:28.330305 u:36.283951 v:39.474311 average:29.841200 min:25.486386 max:39.860432
Advertisement
RAW Paste Data Copied
Advertisement