Guest User

Burn the witch Kazé

a guest
Nov 24th, 2021
37
Never
Not a member of Pastebin yet? Sign Up, it unlocks many cool features!
  1. General
  2. ID : 0 (0x0)
  3. Complete name : D:\Films\backup\Burn the Witch\BDMV\STREAM\00005.m2ts
  4. Format : BDAV
  5. Format/Info : Blu-ray Video
  6. File size : 5.67 GiB
  7. Duration : 19 min 53 s
  8. Overall bit rate mode : Variable
  9. Overall bit rate : 40.8 Mb/s
  10. Maximum Overall bit rate : 48.0 Mb/s
  11.  
  12. Video
  13. ID : 4113 (0x1011)
  14. Menu ID : 1 (0x1)
  15. Format : AVC
  16. Format/Info : Advanced Video Codec
  17. Format profile : High@L4.1
  18. Format settings : CABAC / 4 Ref Frames
  19. Format settings, CABAC : Yes
  20. Format settings, Reference frames : 4 frames
  21. Codec ID : 27
  22. Duration : 19 min 53 s
  23. Bit rate mode : Variable
  24. Bit rate : 34.6 Mb/s
  25. Maximum bit rate : 35.0 Mb/s
  26. Width : 1 920 pixels
  27. Height : 1 080 pixels
  28. Display aspect ratio : 16:9
  29. Frame rate : 23.976 (24000/1001) FPS
  30. Color space : YUV
  31. Chroma subsampling : 4:2:0
  32. Bit depth : 8 bits
  33. Scan type : Progressive
  34. Bits/(Pixel*Frame) : 0.696
  35. Stream size : 4.81 GiB (85%)
  36. Color range : Limited
  37. Color primaries : BT.709
  38. Transfer characteristics : BT.709
  39. Matrix coefficients : BT.709
  40.  
  41. Audio #1
  42. ID : 4352 (0x1100)
  43. Menu ID : 1 (0x1)
  44. Format : PCM
  45. Format settings : Big / Signed
  46. Muxing mode : Blu-ray
  47. Codec ID : 128
  48. Duration : 19 min 53 s
  49. Bit rate mode : Constant
  50. Bit rate : 2 304 kb/s
  51. Channel(s) : 2 channels
  52. Channel layout : L R
  53. Sampling rate : 48.0 kHz
  54. Bit depth : 24 bits
  55. Stream size : 328 MiB (6%)
  56.  
  57. Audio #2
  58. ID : 4353 (0x1101)
  59. Menu ID : 1 (0x1)
  60. Format : PCM
  61. Format settings : Big / Signed
  62. Muxing mode : Blu-ray
  63. Codec ID : 128
  64. Duration : 19 min 53 s
  65. Bit rate mode : Constant
  66. Bit rate : 2 304 kb/s
  67. Channel(s) : 2 channels
  68. Channel layout : L R
  69. Sampling rate : 48.0 kHz
  70. Bit depth : 24 bits
  71. Stream size : 328 MiB (6%)
  72.  
  73. Text #1
  74. ID : 4608 (0x1200)
  75. Menu ID : 1 (0x1)
  76. Format : PGS
  77. Codec ID : 144
  78. Delay relative to video : 14 s 890 ms
  79.  
  80. Text #2
  81. ID : 4609 (0x1201)
  82. Menu ID : 1 (0x1)
  83. Format : PGS
  84. Codec ID : 144
  85.  
  86.  
RAW Paste Data