Guest User

Untitled

a guest
Nov 23rd, 2021
56
Never
Not a member of Pastebin yet? Sign Up, it unlocks many cool features!
  1. General
  2. Unique ID : 136829599581874856438644420030265814106 (0x66F06C1C9850BE402BEAC21B2C3BEC5A)
  3. Complete name : E:\Video\Venom.Let.There.Be.Carnage.2021.AMZN.WEB-DL.1080p.seleZen.mkv
  4. Format : Matroska
  5. Format version : Version 4
  6. File size : 5.58 GiB
  7. Duration : 1 h 37 min
  8. Overall bit rate : 8 191 kb/s
  9. Movie name : Venom Let There Be Carnage 2021 from seleZen
  10. Encoded date : UTC 2021-11-24 00:47:59
  11. Writing application : mkvmerge v59.0.0 ('Shining Star') 64-bit
  12. Writing library : libebml v1.4.2 + libmatroska v1.6.4
  13.  
  14. Video
  15. ID : 1
  16. Format : AVC
  17. Format/Info : Advanced Video Codec
  18. Format profile : High@L4
  19. Format settings : CABAC / 4 Ref Frames
  20. Format settings, CABAC : Yes
  21. Format settings, Reference frames : 4 frames
  22. Codec ID : V_MPEG4/ISO/AVC
  23. Duration : 1 h 37 min
  24. Bit rate mode : Constant
  25. Bit rate : 6 654 kb/s
  26. Nominal bit rate : 10 000 kb/s
  27. Width : 1 920 pixels
  28. Height : 1 040 pixels
  29. Display aspect ratio : 1.85:1
  30. Frame rate mode : Constant
  31. Frame rate : 23.976 (24000/1001) FPS
  32. Color space : YUV
  33. Chroma subsampling : 4:2:0
  34. Bit depth : 8 bits
  35. Scan type : Progressive
  36. Bits/(Pixel*Frame) : 0.139
  37. Stream size : 4.53 GiB (81%)
  38. Language : English
  39. Default : Yes
  40. Forced : No
  41. Color range : Limited
  42. Color primaries : BT.709
  43. Transfer characteristics : BT.709
  44. Matrix coefficients : BT.709
  45.  
  46. Audio #1
  47. ID : 2
  48. Format : E-AC-3
  49. Format/Info : Enhanced AC-3
  50. Commercial name : Dolby Digital Plus
  51. Codec ID : A_EAC3
  52. Duration : 1 h 37 min
  53. Bit rate mode : Constant
  54. Bit rate : 448 kb/s
  55. Channel(s) : 6 channels
  56. Channel layout : L R C LFE Ls Rs
  57. Sampling rate : 48.0 kHz
  58. Frame rate : 31.250 FPS (1536 SPF)
  59. Compression mode : Lossy
  60. Stream size : 312 MiB (5%)
  61. Title : Dub
  62. Language : Russian
  63. Service kind : Complete Main
  64. Default : Yes
  65. Forced : Yes
  66.  
  67. Audio #2
  68. ID : 3
  69. Format : AC-3
  70. Format/Info : Audio Coding 3
  71. Commercial name : Dolby Digital
  72. Codec ID : A_AC3
  73. Duration : 1 h 37 min
  74. Bit rate mode : Constant
  75. Bit rate : 448 kb/s
  76. Channel(s) : 6 channels
  77. Channel layout : L R C LFE Ls Rs
  78. Sampling rate : 48.0 kHz
  79. Frame rate : 31.250 FPS (1536 SPF)
  80. Compression mode : Lossy
  81. Stream size : 312 MiB (5%)
  82. Title : Dub
  83. Language : Russian
  84. Service kind : Complete Main
  85. Default : No
  86. Forced : No
  87.  
  88. Audio #3
  89. ID : 4
  90. Format : E-AC-3
  91. Format/Info : Enhanced AC-3
  92. Commercial name : Dolby Digital Plus
  93. Codec ID : A_EAC3
  94. Duration : 1 h 37 min
  95. Bit rate mode : Constant
  96. Bit rate : 640 kb/s
  97. Channel(s) : 6 channels
  98. Channel layout : L R C LFE Ls Rs
  99. Sampling rate : 48.0 kHz
  100. Frame rate : 31.250 FPS (1536 SPF)
  101. Compression mode : Lossy
  102. Stream size : 447 MiB (8%)
  103. Title : Original
  104. Language : English
  105. Service kind : Complete Main
  106. Default : No
  107. Forced : No
  108.  
  109. Text #1
  110. ID : 5
  111. Format : UTF-8
  112. Codec ID : S_TEXT/UTF8
  113. Codec ID/Info : UTF-8 Plain Text
  114. Duration : 10 min 25 s
  115. Bit rate : 3 b/s
  116. Count of elements : 7
  117. Stream size : 246 Bytes (0%)
  118. Title : Forced
  119. Language : Russian
  120. Default : Yes
  121. Forced : Yes
  122.  
  123. Text #2
  124. ID : 6
  125. Format : UTF-8
  126. Codec ID : S_TEXT/UTF8
  127. Codec ID/Info : UTF-8 Plain Text
  128. Duration : 1 h 36 min
  129. Bit rate : 72 b/s
  130. Count of elements : 1086
  131. Stream size : 50.7 KiB (0%)
  132. Title : Full
  133. Language : Russian
  134. Default : No
  135. Forced : No
  136.  
  137. Text #3
  138. ID : 7
  139. Format : UTF-8
  140. Codec ID : S_TEXT/UTF8
  141. Codec ID/Info : UTF-8 Plain Text
  142. Duration : 1 h 35 min
  143. Bit rate : 60 b/s
  144. Count of elements : 1495
  145. Stream size : 42.3 KiB (0%)
  146. Title : Full
  147. Language : English
  148. Default : No
  149. Forced : No
  150.  
  151. Text #4
  152. ID : 8
  153. Format : UTF-8
  154. Codec ID : S_TEXT/UTF8
  155. Codec ID/Info : UTF-8 Plain Text
  156. Duration : 1 h 36 min
  157. Bit rate : 71 b/s
  158. Count of elements : 1860
  159. Stream size : 50.5 KiB (0%)
  160. Title : SDH
  161. Language : English
  162. Default : No
  163. Forced : No
  164.  
  165.  
RAW Paste Data